Loading...
Error

Скачать Спящие / Sleepers (Барри Левинсон) [1996, триллер, драма, криминал, BDRip-AVC] [MVO]+[AVO]x5+[Sub]x2 торрент без регистрации

 
Статистика раздачи
Размер:  4,87 GB   |    Скачан:  119 раз
Сидов:  1  [  0 KB/s  ]  
 
Автор Сообщение

Marsianka

[] 

Спящие / Sleepers
«When friendship runs deeper than blood»
Страна: США / Baltimore Pictures, Polygram Filmed Entertainment, Propaganda Films, Warner Bros. Pictures
Жанр: триллер, драма, криминал
Год выпуска: 1996
Продолжительность: 02:27:09

Перевод: Профессиональный многоголосый (ОРТ), авторский
Cубтитры: Русские, английские
Навигация по главам: Присутствуют
Режиссер: Барри Левинсон
В ролях: Кевин Бэйкон, Брэд Питт, Роберт Де Ниро, Дастин Хоффман, Билли Крадап, Витторио Гассман, Минни Драйвер, Рон Элдард, Джейсон Патрик, Джеффри Уигдор, Терри Кинни, Брэд Ренфро, Бруно Керби, Фрэнк Медрано, Джон Ди Бенедетто, Чак Лоу, Пэт МакНамара, Дэш Майок
Описание:
В шестидесятые годы нью-йоркский квартал «адская кухня» был местом, где правили священники и мафиози, невинность и жестокость. Здесь росли четыре друга, беззаботное детство которых было прервано шалостью, обернувшейся страшной бедой, толкнувшей их во взрослый мир насилия и подлости. Прошло полтора десятилетия, но ужасные воспоминания о прошлом все еще живы, и теперь уроки, усвоенные в «адской кухне», помогут им свести счеты с судьбой, которая обошлась с ними столь сурово

Релиз:: |
Качество видео: BDRip-AVC [BDRemux 1080p]
Формат видео: MKV

Видео: MPEG-4 AVC, 2500 Кбит/с, 1024x432, 23.976 кадр/с
Аудио#1: Русский (AC3, 6 ch, 384 Кбит/с) / Профессиональный многоголосый (ОРТ)
Аудио#2: Русский (AC3, 6 ch, 448 Кбит/с) / Авторский одноголосый (Гаврилов 1)
Аудио#3: Русский (AC3, 6 ch, 448 Кбит/с) / Авторский одноголосый (Гаврилов 2)
Аудио#4: Русский (AC3, 2 ch, 192 Кбит/с) / Авторский одноголосый (Ю.Сербин)
Аудио#5: Русский (AC3, 2 ch, 192 Кбит/с) / Авторский одноголосый (С.Визгунов)
Аудио#6: Русский (AC3, 2 ch, 192 Кбит/с) / Авторский одноголосый (Ю.Живов)
Аудио#7: Английский (AC3, 6 ch, 384 Кбит/с)
General
Unique ID : 205328237142104789835332586988296433219 (0x9A78C7B04F47918F865BBDBC049F6E43)
Complete name : D:MY RIPSFilmMediaclubSleepers.1996.x264.BDRip.AVC.MediaClub.mkv
Format : Matroska
Format version : Version 4 / Version 2
File size : 4.87 GiB
Duration : 2h 27mn
Overall bit rate : 4 738 Kbps
Movie name : Rip by Die_Roten [Mediaclub.tv]
Encoded date : UTC 2014-02-24 20:19:19
Writing application : mkvmerge v6.6.0 ('The Edge Of The In Between') built on Dec 1 2013 17:55:00
Writing library : libebml v1.3.0 + libmatroska v1.4.1

Video
ID : 1
Format : AVC
Format/Info : Advanced Video Codec
Format profile : High@L4.1
Format settings, CABAC : Yes
Format settings, ReFrames : 10 frames
Codec ID : V_MPEG4/ISO/AVC
Duration : 2h 27mn
Bit rate : 2 500 Kbps
Width : 1 024 pixels
Height : 432 pixels
Display aspect ratio : 2.40:1
Frame rate mode : Constant
Frame rate : 23.976 fps
Color space : YUV
Chroma subsampling : 4:2:0
Bit depth : 8 bits
Scan type : Progressive
Bits/(Pixel*Frame) : 0.236
Stream size : 2.47 GiB (51%)
Title : Sleepers.1996.x264.BDRip.AVC.MediaClub[Rip.by.Die.Roten]
Writing library : x264 core 138 r2358 9e941d1
Encoding settings : cabac=1 / ref=10 / deblock=1:-3:-3 / analyse=0x3:0x113 / me=umh / subme=10 / psy=1 / psy_rd=1.00:0.10 / mixed_ref=1 / me_range=48 / chroma_me=1 / trellis=2 / 8x8dct=1 / cqm=0 / deadzone=21,11 / fast_pskip=0 / chroma_qp_offset=-3 / threads=6 / lookahead_threads=1 / sliced_threads=0 / nr=0 / decimate=1 / interlaced=0 / bluray_compat=0 / constrained_intra=0 / bframes=8 / b_pyramid=2 / b_adapt=2 / b_bias=0 / direct=3 / weightb=1 / open_gop=0 / weightp=2 / keyint=240 / keyint_min=22 / scenecut=40 / intra_refresh=0 / rc_lookahead=40 / rc=2pass / mbtree=0 / bitrate=2500 / ratetol=1.0 / qcomp=0.60 / qpmin=10 / qpmax=51 / qpstep=4 / cplxblur=20.0 / qblur=0.5 / vbv_maxrate=62500 / vbv_bufsize=78125 / nal_hrd=none / ip_ratio=1.40 / pb_ratio=1.30 / aq=1:1.00
Language : English
Default : Yes
Forced : No

Audio #1
ID : 2
Format : AC-3
Format/Info : Audio Coding 3
Mode extension : CM (complete main)
Format settings, Endianness : Big
Codec ID : A_AC3
Duration : 2h 27mn
Bit rate mode : Constant
Bit rate : 384 Kbps
Channel count : 6 channels
Channel positions : Front: L C R, Side: L R, LFE
Sampling rate : 48.0 KHz
Bit depth : 16 bits
Compression mode : Lossy
Stream size : 404 MiB (8%)
Title : MVO | ОРТ
Language : Russian
Default : Yes
Forced : Yes

Audio #2
ID : 3
Format : AC-3
Format/Info : Audio Coding 3
Mode extension : CM (complete main)
Format settings, Endianness : Big
Codec ID : A_AC3
Duration : 2h 27mn
Bit rate mode : Constant
Bit rate : 448 Kbps
Channel count : 6 channels
Channel positions : Front: L C R, Side: L R, LFE
Sampling rate : 48.0 KHz
Bit depth : 16 bits
Compression mode : Lossy
Stream size : 472 MiB (9%)
Title : AVO | Гаврилов 1
Language : Russian
Default : No
Forced : Yes

Audio #3
ID : 4
Format : AC-3
Format/Info : Audio Coding 3
Mode extension : CM (complete main)
Format settings, Endianness : Big
Codec ID : A_AC3
Duration : 2h 27mn
Bit rate mode : Constant
Bit rate : 448 Kbps
Channel count : 6 channels
Channel positions : Front: L C R, Side: L R, LFE
Sampling rate : 48.0 KHz
Bit depth : 16 bits
Compression mode : Lossy
Stream size : 472 MiB (9%)
Title : AVO | Гаврилов 2
Language : Russian
Default : No
Forced : Yes

Audio #4
ID : 5
Format : AC-3
Format/Info : Audio Coding 3
Mode extension : CM (complete main)
Format settings, Endianness : Big
Codec ID : A_AC3
Duration : 2h 27mn
Bit rate mode : Constant
Bit rate : 192 Kbps
Channel count : 2 channels
Channel positions : Front: L R
Sampling rate : 48.0 KHz
Bit depth : 16 bits
Compression mode : Lossy
Stream size : 202 MiB (4%)
Title : AVO | Ю.Сербин
Language : Russian
Default : No
Forced : Yes

Audio #5
ID : 6
Format : AC-3
Format/Info : Audio Coding 3
Mode extension : CM (complete main)
Format settings, Endianness : Big
Codec ID : A_AC3
Duration : 2h 27mn
Bit rate mode : Constant
Bit rate : 192 Kbps
Channel count : 2 channels
Channel positions : Front: L R
Sampling rate : 48.0 KHz
Bit depth : 16 bits
Compression mode : Lossy
Stream size : 202 MiB (4%)
Title : AVO | C.Визгунов
Language : Russian
Default : No
Forced : Yes

Audio #6
ID : 7
Format : AC-3
Format/Info : Audio Coding 3
Mode extension : CM (complete main)
Format settings, Endianness : Big
Codec ID : A_AC3
Duration : 2h 27mn
Bit rate mode : Constant
Bit rate : 192 Kbps
Channel count : 2 channels
Channel positions : Front: L R
Sampling rate : 48.0 KHz
Bit depth : 16 bits
Compression mode : Lossy
Stream size : 202 MiB (4%)
Title : AVO | Ю.Живов
Language : Russian
Default : No
Forced : Yes

Audio #7
ID : 8
Format : AC-3
Format/Info : Audio Coding 3
Mode extension : CM (complete main)
Format settings, Endianness : Big
Codec ID : A_AC3
Duration : 2h 27mn
Bit rate mode : Constant
Bit rate : 384 Kbps
Channel count : 6 channels
Channel positions : Front: L C R, Side: L R, LFE
Sampling rate : 48.0 KHz
Bit depth : 16 bits
Compression mode : Lossy
Stream size : 404 MiB (8%)
Title : ENG | Original
Language : English
Default : No
Forced : Yes

Text #1
ID : 9
Format : UTF-8
Codec ID : S_TEXT/UTF8
Codec ID/Info : UTF-8 Plain Text
Title : RUS
Default : Yes
Forced : No

Text #2
ID : 10
Format : UTF-8
Codec ID : S_TEXT/UTF8
Codec ID/Info : UTF-8 Plain Text
Title : RUS_2
Default : No
Forced : No

Text #3
ID : 11
Format : UTF-8
Codec ID : S_TEXT/UTF8
Codec ID/Info : UTF-8 Plain Text
Title : ENG
Default : No
Forced : No

Menu
00:00:00.000 : en:Friendship Deeper Than Blood
00:08:42.522 : en:Hell's Kitchen 1966
00:16:53.345 : en:Easy Targets at Holy Angels
00:21:21.446 : en:Father Bobby and Carol Martinez
00:26:34.092 : en:King Benny Then and Now
00:32:32.116 : en:Michelangelo on Asphalt
00:40:59.165 : en:Needing a Priest
00:50:24.020 : en:More Than the Right Thing to Do
00:59:35.572 : en:Hitting the Hotdog Vendor
01:08:22.098 : en:The Minute Everything Changed
01:15:19.640 : en:The Least of My Brethren
01:26:17.338 : en:A Good Lie
01:36:47.968 : en:The First Day at Wilkenson
01:44:20.170 : en:The Cafeteria Floor
01:53:28.218 : en:Childhood's End
02:04:12.194 : en:Close to Father Bobby
02:14:03.035 : en:A Gift
02:23:02.907 : en:90 Minutes of Freedom



Скачать Спящие.Sleepers.(Барри.Левинсон).[1996.триллер.драма.криминал.BDRip-AVC].[MVO]+[AVO]x5+[Sub]x2.torrent без регистрации
Золото ЗОЛОТАЯ РАЗДАЧА! СКАЧАННОЕ НЕ ЗАСЧИТЫВАЕТСЯ! Золото
Дата: Зарегистрирован   [ Тип: внутренний ] Как тут cкачать?
MAGNET ссылка
MAGNET ссылка


Скачать .torrent

13 KB

Статус: проверено DHT
Скачан: торрент - 119 раз, раздача полностью - 144 раз
Размер: 4,87 GB
Оценка:  5 (Голосов: 1)
Поблагодарили: 3
Поделиться ссылкой на эту раздачу с друзьями:
В контактеFacebookОдноклассникиTwitterLivejournalМой МирLiveinternet
 

 
Показать сообщения:    


Вы не можете начинать темы
Вы не можете отвечать на сообщения
Вы не можете редактировать свои сообщения
Вы не можете удалять свои сообщения
Вы не можете голосовать в опросах
Вы не можете прикреплять файлы к сообщениям
Вы можете скачивать файлы