Loading...
Error

Скачать Аэропорт 77 / Airport '77 (Джерри Джеймсон) [1977, боевик, триллер, драма, DVDRip-AVC] [MVO]+[Оригинал]+[Sub] торрент без регистрации

 
Статистика раздачи
Размер:  1,45 GB   |    Скачан:  5381 раз
Сидов:  1  [  0 KB/s  ]  
 
Автор Сообщение

Marsianka

[] 

Страна: США
Жанр: боевик, триллер, драма
Год выпуска: 1977
Продолжительность: 01:48:41
Перевод: Профессиональный (многоголосый, закадровый) + Оригинальный
Субтитры: английские.
Режиссер: Джерри Джеймсон / Jerry Jameson
В ролях: Джек Леммон (Capt. Don Gallagher), Ли Грант (Karen Wallace), Бренда Ваккаро (Eve Clayton), Джозеф Коттен (Nicholas St. Downs III), Оливия Де Хэвилленд (Emily Livingston), Джеймс Стюарт (Philip Stevens), Джордж Кеннеди (Joe Patroni), Дэррен МакГэвин (Stan Buchek), Кристофер Ли (Martin Wallace), Роберт Фоксуорт (Chambers), Роберт Хукс (Eddie), Монте Маркэм (Banker)
Описание: Известный магнат и поклонник искусств должен перевезти коллекцию картин на открытие музея в Палм-Бич на роскошном Боинге класса «люкс». Полет превращается в настоящий великосветский прием. Но и богатым придется заплакать: самолет захватывают и вскоре топят в океане воздушные пираты...

MPAA: PG - Рекомендуется присутствие родителей
Семпл
Качество: DVDRip
Контейнер: MKV

Видео: AVC, 720x436 @ 1024x436 (2.35:1), 1521 kbps, 25 fps, 0,194 bpp
Аудио 1: русский / AC3 / 2.0 / 48 kHz / 192 kbps
Аудио 2: английский / AC3 / 2.0 / 48 kHz / 192 kbps
Навигация по главам: есть



Format : Matroska
Format version : Version 2
File size : 1.45 GiB
Duration : 1h 48mn
Overall bit rate : 1 907 Kbps
Movie name : = Аэропорт '77 / Airport '77 DVDRip by SC Kosmos =
Encoded date : UTC 2014-02-24 23:35:53
Writing application : mkvmerge v3.3.0 ('Language') gebaut am Mar 24 2010 14:59:24
Writing library : libebml v0.8.0 + libmatroska v0.9.0

Video
ID : 1
Format : AVC
Format/Info : Advanced Video Codec
Format profile : High@L4.1
Format settings, CABAC : Yes
Format settings, ReFrames : 12 frames
Codec ID : V_MPEG4/ISO/AVC
Duration : 1h 48mn
Bit rate : 1 521 Kbps
Width : 720 pixels
Height : 436 pixels
Display aspect ratio : 2.35:1
Frame rate : 25.000 fps
Color space : YUV
Chroma subsampling : 4:2:0
Bit depth : 8 bits
Scan type : Progressive
Bits/(Pixel*Frame) : 0.194
Stream size : 1.13 GiB (78%)
Title : Аэропорт '77 / Airport '77 DVDRip by SC Kosmos
Writing library : x264 core 140 r2377 1ca7bb9
Encoding settings : cabac=1 / ref=12 / deblock=1:-2:-2 / analyse=0x3:0x113 / me=umh / subme=11 / psy=1 / psy_rd=1.00:0.00 / mixed_ref=1 / me_range=48 / chroma_me=1 / trellis=2 / 8x8dct=1 / cqm=0 / deadzone=21,11 / fast_pskip=0 / chroma_qp_offset=-2 / threads=12 / lookahead_threads=1 / sliced_threads=0 / nr=0 / decimate=1 / interlaced=0 / bluray_compat=0 / constrained_intra=0 / bframes=9 / b_pyramid=2 / b_adapt=1 / b_bias=0 / direct=3 / weightb=1 / open_gop=0 / weightp=2 / keyint=250 / keyint_min=25 / scenecut=40 / intra_refresh=0 / rc_lookahead=40 / rc=2pass / mbtree=0 / bitrate=1521 / ratetol=1.0 / qcomp=0.60 / qpmin=0 / qpmax=69 / qpstep=4 / cplxblur=20.0 / qblur=0.5 / vbv_maxrate=50000 / vbv_bufsize=50000 / nal_hrd=none / filler=0 / ip_ratio=1.40 / pb_ratio=1.30 / aq=1:1.00
Language : English
Default : No
Forced : No

Audio #1
ID : 2
Format : AC-3
Format/Info : Audio Coding 3
Mode extension : CM (complete main)
Codec ID : A_AC3
Duration : 1h 48mn
Bit rate mode : Constant
Bit rate : 192 Kbps
Channel(s) : 2 channels
Channel positions : Front: L R
Sampling rate : 48.0 KHz
Bit depth : 16 bits
Compression mode : Lossy
Stream size : 149 MiB (10%)
Title : MVO
Language : Russian
Default : Yes
Forced : No

Audio #2
ID : 3
Format : AC-3
Format/Info : Audio Coding 3
Mode extension : CM (complete main)
Codec ID : A_AC3
Duration : 1h 48mn
Bit rate mode : Constant
Bit rate : 192 Kbps
Channel(s) : 2 channels
Channel positions : Front: L R
Sampling rate : 48.0 KHz
Bit depth : 16 bits
Compression mode : Lossy
Stream size : 149 MiB (10%)
Language : English
Default : No
Forced : No

Text
ID : 4
Format : UTF-8
Codec ID : S_TEXT/UTF8
Codec ID/Info : UTF-8 Plain Text
Language : English
Default : Yes
Forced : No

Menu
00:00:00.000 : en:Chapter 01
00:07:10.160 : en:Chapter 02
00:12:07.800 : en:Chapter 03
00:16:03.080 : en:Chapter 04
00:25:09.640 : en:Chapter 05
00:30:52.400 : en:Chapter 06
00:35:24.320 : en:Chapter 07
00:40:27.800 : en:Chapter 08
00:46:32.080 : en:Chapter 09
00:53:51.800 : en:Chapter 10
00:57:42.200 : en:Chapter 11
01:06:13.640 : en:Chapter 12
01:09:20.200 : en:Chapter 13
01:14:27.520 : en:Chapter 14
01:19:06.080 : en:Chapter 15
01:27:03.400 : en:Chapter 16
01:36:13.880 : en:Chapter 17
01:46:10.640 : en:Chapter 18
01:48:41.440 : en:Chapter 19




Скачать Аэропорт.77.Airport.'77.(Джерри.Джеймсон).[1977.боевик.триллер.драма.DVDRip-AVC].[MVO]+[Оригинал]+[Sub].torrent без регистрации
Золото ЗОЛОТАЯ РАЗДАЧА! СКАЧАННОЕ НЕ ЗАСЧИТЫВАЕТСЯ! Золото
Дата: Зарегистрирован   [ Тип: внутренний ] Как тут cкачать?
MAGNET ссылка
MAGNET ссылка


Скачать .torrent

15 KB

Статус: проверено DHT
Скачан: торрент - 5381 раз, раздача полностью - 39 раз
Размер: 1,45 GB
Оценка:  - (Голосов: 0)
Поблагодарили: 2
Поделиться ссылкой на эту раздачу с друзьями:
В контактеFacebookОдноклассникиTwitterLivejournalМой МирLiveinternet
 

 
Показать сообщения:    


Вы не можете начинать темы
Вы не можете отвечать на сообщения
Вы не можете редактировать свои сообщения
Вы не можете удалять свои сообщения
Вы не можете голосовать в опросах
Вы не можете прикреплять файлы к сообщениям
Вы можете скачивать файлы