Loading...
Error

Скачать Ночь пугала / Night of the Scarecrow (Джефф Берр) [1995, ужасы, фантастика, BDRip] [AVO]x2+[Оригинал] торрент без регистрации

 
Статистика раздачи
Размер:  1,48 GB   |    Скачан:  104 раза
Сидов:  1  [  0 KB/s  ]  
 
Автор Сообщение

Marsianka

[] 

Название: Ночь пугала
Оригинальное название: Night of the Scarecrow
Год выпуска: 1995
Жанр: ужасы, фантастика
Выпущено: США, Republic Pictures (II), Steve White Entertainment
Режиссер: Джефф Берр
В ролях: Элизабет Барондес, Джон Месе, Стивен Рут, Брюс Гловер, Дирк Блокер, Ховард Суэйн, Гэри Локвуд, Джон Хоукс, Уильям Джозеф Баркер, Мартин Бесвик

О фильме: Дух злого колдуна, казнённого сотню лет назад, вселяется в пугало. Соломенное чучело отправляется на поиски магической книги, с помощью которой можно восстановить тело чародея. А всех представителей рода человеческого, встречающихся на пути, пугало уничтожает. В жестокости и разнообразии ему не откажешь. Кто-то будет распят, кого-то растерзают и утащат под землю мерзкие щупальца, кому-то зашьют рот ростки зловещих растений...

Качество: BDRip
Размер: 1.48 ГБ
Продолжительность: 01:25:02

Видео: XviD, 1903 Кбит/с, 720x400
Аудио 1: русский, 48 kHz, AC3, 2 ch, 192 kbps avg, Сергей Визгунов [Авторский]
Аудио 2: русский, 48 kHz, AC3, 2 ch, 192 kbps avg, Пётр Карцев [Авторский]

Внешний файл
Аудио: английский, 48 kHz, AC3, 2 ch, 192 kbps avg, [Оригинал]
Сравнение с исходником

ujju

Не ходите на кукурузные поля !

Добротный ужастик, держащий в напряжении до самого конца, не должен пройти мимо любого ценителя жанра. Множество запоминающихся впечатляющих моментов, доставляющих удовольствие от увиденного! Пугало зашивает рот нитками, расправляется с полицейскими, сеет своё семя внутрь человека и т. д... Незабываемое зрелище.
Вообще, тема пугала достаточно оригинальна и интересна сама по себе, однако не так часто рассматриваемая в кино. Вот и данный фильм считаю недооценённым и необоснованно отнесённым к банальному трешу, после чего забытого и заброшенного на дальнюю полку, не получившего должной популярности. Несправедливо!
Желающим пощекотать нервы или просто с удовольствием провести полтора часа у экрана рекомендую !

9 из 10

Кинопоиск
Общее
Полное имя : E:VideoNoch.pugala.1995.XviD.BDRipNoch.pugala.1995.Original.eng.ac3
Формат : AC-3
Формат/Информация : Audio Coding 3
Размер файла : 117 Мбайт
Продолжительность : 1 ч. 25 м.
Режим общего битрейта : Постоянный
Общий поток : 192 Кбит/сек

Аудио
Формат : AC-3
Формат/Информация : Audio Coding 3
Расширение режима : CM (complete main)
Параметр Endianness формата : Big
Продолжительность : 1 ч. 25 м.
Вид битрейта : Постоянный
Битрейт : 192 Кбит/сек
Каналы : 2 канала
Расположение каналов : Front: L R
Частота : 48,0 КГц
Битовая глубина : 16 бит
Метод сжатия : С потерями
Размер потока : 117 Мбайт (100%)

Общее
Полное имя : E:VideoNoch.pugala.1995.XviD.BDRipNoch.pugala.1995.XviD.BDRip.avi
Формат : AVI
Формат/Информация : Audio Video Interleave
Размер файла : 1,37 Гбайт
Продолжительность : 1 ч. 25 м.
Общий поток : 2302 Кбит/сек
Программа кодирования : VirtualDubMod 1.5.10.2 (build 2540/release)
Библиотека кодирования : VirtualDubMod build 2540/release

Видео
Идентификатор : 0
Формат : MPEG-4 Visual
Профиль формата : Advanced Simple@L5
Параметр BVOP формата : 1
Параметр QPel формата : Нет
Параметр GMC формата : Без точки перехода
Параметр матрицы формата : Default (H.263)
Режим смешивания : Сжатый битовый поток
Идентификатор кодека : XVID
Идентификатор кодека/Подсказка : XviD
Продолжительность : 1 ч. 25 м.
Битрейт : 1903 Кбит/сек
Ширина : 720 пикселей
Высота : 400 пикселей
Соотношение сторон : 16:9
Частота кадров : 23,976 кадра/сек
Цветовое пространство : YUV
Субдискретизация насыщенности : 4:2:0
Битовая глубина : 8 бит
Тип развёртки : Прогрессивная
Метод сжатия : С потерями
Бит/(Пиксели*Кадры) : 0.276
Размер потока : 1,13 Гбайт (83%)
Библиотека кодирования : XviD 1.2.1 (UTC 2008-12-04)

Аудио #1
Идентификатор : 1
Формат : AC-3
Формат/Информация : Audio Coding 3
Расширение режима : CM (complete main)
Параметр Endianness формата : Big
Идентификатор кодека : 2000
Продолжительность : 1 ч. 25 м.
Вид битрейта : Постоянный
Битрейт : 192 Кбит/сек
Каналы : 2 канала
Расположение каналов : Front: L R
Частота : 48,0 КГц
Битовая глубина : 16 бит
Метод сжатия : С потерями
Размер потока : 117 Мбайт (8%)
Выравнивание : Разделение по промежуткам
Продолжительность промежутка : 42 мс. (1,00 видеокадр)
Время предзагрузки промежутка : 500 мс.

Аудио #2
Идентификатор : 2
Формат : AC-3
Формат/Информация : Audio Coding 3
Расширение режима : CM (complete main)
Параметр Endianness формата : Big
Идентификатор кодека : 2000
Продолжительность : 1 ч. 25 м.
Вид битрейта : Постоянный
Битрейт : 192 Кбит/сек
Каналы : 2 канала
Расположение каналов : Front: L R
Частота : 48,0 КГц
Битовая глубина : 16 бит
Метод сжатия : С потерями
Размер потока : 117 Мбайт (8%)
Выравнивание : Разделение по промежуткам
Продолжительность промежутка : 42 мс. (1,00 видеокадр)
Время предзагрузки промежутка : 500 мс.



Скачать Ночь.пугала.Night.of.the.Scarecrow.(Джефф.Берр).[1995.ужасы.фантастика.BDRip].[AVO]x2+[Оригинал].torrent без регистрации
Золото ЗОЛОТАЯ РАЗДАЧА! СКАЧАННОЕ НЕ ЗАСЧИТЫВАЕТСЯ! Золото
Дата: Зарегистрирован   [ Тип: внутренний ] Как тут cкачать?
MAGNET ссылка
MAGNET ссылка


Скачать .torrent

15 KB

Статус: проверено DHT
Скачан: торрент - 104 раз, раздача полностью - 14 раз
Размер: 1,48 GB
Оценка:  - (Голосов: 0)
Поблагодарили: 1
Поделиться ссылкой на эту раздачу с друзьями:
В контактеFacebookОдноклассникиTwitterLivejournalМой МирLiveinternet
 

 
Показать сообщения:    


Вы не можете начинать темы
Вы не можете отвечать на сообщения
Вы не можете редактировать свои сообщения
Вы не можете удалять свои сообщения
Вы не можете голосовать в опросах
Вы не можете прикреплять файлы к сообщениям
Вы можете скачивать файлы