Loading...
Error

Скачать Рассеянный / Le Distrait (Пьер Ришар) [1970, комедия, мелодрама, WEB-DLRip] [DVO] торрент без регистрации

 
Статистика раздачи
Размер:  1,45 GB   |    Скачан:  116 раз
Сидов:  1  [  0 KB/s  ]  
 
Автор Сообщение

Marsianka

[] 

Рассеянный / Le Distrait
Страна: Франция
Жанр: комедия, мелодрама
Год выпуска: 1970
Продолжительность: 01:22:19
Перевод: Профессиональный (двухголосый закадровый) НТВ+
Cубтитры: нет

Режиссер: Пьер Ришар / Pierre Richard

В ролях: Пьер Ришар, Мари-Кристин Барро, Мария Паком, Катрин Сами, Мишлин Люссьони, Поль Пребуа, Цилла Шелтон, Робер Дальбан, Франсуа Мэтр, Жак Моно, Роман Бутей, Клод Эдрард, Энн-Мари Бло, Фанни Гэллард, Рауль Дэлфоз, Жан Об, Робер Ле Беаль, Рожер Люмон, Альбер Симоно, Бернар Шарлан, Бернар Блие, Андре Баден, Ив Барсак, Эллен Бернсен, Натали Курваль, Жак Дери, Анна Дукинг, Андре Дюма, Мишель Франчини, Марсель Гассук, Жорж Гере, Мариус Лори

Описание: Пьер Малаке эксцентричный и невероятно рассеянный молодой человек с богатым воображением, живущий в мире грёз и постоянно попадающий в различные курьёзные ситуации. По рекомендации матери он нанят в крупное рекламное агентство «Жерико». Пьер, полный бредовых рекламных идей, вмешивается во все дела и пытается всё переделать на свой манер. Его рекламные ролики напоминают фильмы ужасов; тема насилия и смерти забавляет его, чёрный юмор присутствует во всех его работах. Он убеждён, что «шоковая» реклама самая эффективная и современная. Его действия шокируют и раздражают сотрудников, но, к их изумлению, строгий босс, господин Гитон спускает Пьеру с рук все его проделки



Качество видео: WEB-DLRip [Исходник WEB-DL 720p / HDCLUB]
Формат видео: AVI
Видео кодек: XviD
Аудио кодек: AC3
Видео: 720x432 (1.67:1), 24 fps, XviD build 73 ~2327 kbps avg, 0.31 bit/pixel
Аудио: 48 kHz, AC3 Dolby Digital, 2/0 (L,R) Surround Encoded ch, ~192 kbps
Раздача от:
D:Мои рипыLe.Distrait.1970.WEB-DLRip.dexter_lex.avi
General
Complete name : D:Мои рипыLe.Distrait.1970.WEB-DLRip.dexter_lex.avi
Format : AVI
Format/Info : Audio Video Interleave
File size : 1.45 GiB
Duration : 1h 22mn
Overall bit rate : 2 529 Kbps
Writing application : VirtualDubMod 1.5.10.3 | www.virtualdub-fr.org || (build 2550/release)
Writing library : VirtualDubMod build 2550/release
Video #0
ID : 0
Format : MPEG-4 Visual
Format profile : Advanced Simple@L5
Format settings, BVOP : 1
Format settings, QPel : No
Format settings, GMC : No warppoints
Format settings, Matrix : Custom
Codec ID : XVID
Codec ID/Hint : XviD
Duration : 1h 22mn
Bit rate : 2 328 Kbps
Width : 720 pixels
Height : 432 pixels
Display aspect ratio : 1.667
Frame rate : 24.000 fps
Color space : YUV
Chroma subsampling : 4:2:0
Bit depth : 8 bits
Scan type : Progressive
Compression mode : Lossy
Bits/(Pixel*Frame) : 0.312
Stream size : 1.34 GiB (92%)
Writing library : XviD 73
Audio #1
ID : 1
Format : AC-3
Format/Info : Audio Coding 3
Format profile : Dolby Digital
Mode extension : CM (complete main)
Codec ID : 2000
Duration : 1h 22mn
Bit rate mode : Constant
Bit rate : 192 Kbps
Channel(s) : 2 channels
Channel positions : Front: L R
Sampling rate : 48.0 KHz
Bit depth : 16 bits
Compression mode : Lossy
Stream size : 113 MiB (8%)
Alignment : Split accross interleaves
Interleave, duration : 42 ms (1.00 video frame)
Interleave, preload duration : 500 ms



Скачать Рассеянный.Le.Distrait.(Пьер.Ришар).[1970.комедия.мелодрама.WEB-DLRip].[DVO].torrent без регистрации
Золото ЗОЛОТАЯ РАЗДАЧА! СКАЧАННОЕ НЕ ЗАСЧИТЫВАЕТСЯ! Золото
Дата: Зарегистрирован   [ Тип: внутренний ] Как тут cкачать?
MAGNET ссылка
MAGNET ссылка


Скачать .torrent

15 KB

Статус: проверено DHT
Скачан: торрент - 116 раз, раздача полностью - 40 раз
Размер: 1,45 GB
Оценка:  - (Голосов: 0)
Поблагодарили: 0
Поделиться ссылкой на эту раздачу с друзьями:
В контактеFacebookОдноклассникиTwitterLivejournalМой МирLiveinternet
 

 
Показать сообщения:    


Вы не можете начинать темы
Вы не можете отвечать на сообщения
Вы не можете редактировать свои сообщения
Вы не можете удалять свои сообщения
Вы не можете голосовать в опросах
Вы не можете прикреплять файлы к сообщениям
Вы можете скачивать файлы