Loading...
Error

Скачать Рассеянный / Le Distrait (Пьер Ришар) [1970, комедия, мелодрама, WEB-DLRip] [DVO] торрент без регистрации

 
Статистика раздачи
Размер:  742 MB   |    Скачан:  103 раза
Сидов:  3  [  0 KB/s  ]   Личеров:  1  [  0 KB/s  ]  
 
Автор Сообщение

Marsianka

[] 

Рассеянный / Le Distrait
Страна: Франция
Жанр: комедия, мелодрама
Год выпуска: 1970
Продолжительность: 01:22:19
Перевод: Профессиональный (двухголосый закадровый) НТВ+
Cубтитры: нет

Режиссер: Пьер Ришар / Pierre Richard

В ролях: Пьер Ришар, Мари-Кристин Барро, Мария Паком, Катрин Сами, Мишлин Люссьони, Поль Пребуа, Цилла Шелтон, Робер Дальбан, Франсуа Мэтр, Жак Моно, Роман Бутей, Клод Эдрард, Энн-Мари Бло, Фанни Гэллард, Рауль Дэлфоз, Жан Об, Робер Ле Беаль, Рожер Люмон, Альбер Симоно, Бернар Шарлан, Бернар Блие, Андре Баден, Ив Барсак, Эллен Бернсен, Натали Курваль, Жак Дери, Анна Дукинг, Андре Дюма, Мишель Франчини, Марсель Гассук, Жорж Гере, Мариус Лори

Описание: Пьер Малаке эксцентричный и невероятно рассеянный молодой человек с богатым воображением, живущий в мире грёз и постоянно попадающий в различные курьёзные ситуации. По рекомендации матери он нанят в крупное рекламное агентство «Жерико». Пьер, полный бредовых рекламных идей, вмешивается во все дела и пытается всё переделать на свой манер. Его рекламные ролики напоминают фильмы ужасов; тема насилия и смерти забавляет его, чёрный юмор присутствует во всех его работах. Он убеждён, что «шоковая» реклама самая эффективная и современная. Его действия шокируют и раздражают сотрудников, но, к их изумлению, строгий босс, господин Гитон спускает Пьеру с рук все его проделки



Качество видео: WEB-DLRip [Исходник WEB-DL 720p / HDCLUB]
Формат видео: AVI
Видео кодек: XviD
Аудио кодек: MP3
Видео: 640x384 (1.67:1), 24 fps, XviD build 73 ~1123 kbps avg, 0.19 bit/pixel
Аудио: 48 kHz, MPEG Layer 3, 2 ch, ~128.00 kbps avg
Раздача от:
D:Мои рипыLe.Distrait.1970.WEB-DLRip.DVO.dexter_lex.avi
General
Complete name : D:Мои рипыLe.Distrait.1970.WEB-DLRip.DVO.dexter_lex.avi
Format : AVI
Format/Info : Audio Video Interleave
File size : 742 MiB
Duration : 1h 22mn
Overall bit rate : 1 261 Kbps
Writing application : VirtualDubMod 1.5.10.3 | www.virtualdub-fr.org || (build 2550/release)
Writing library : VirtualDubMod build 2550/release
Video #0
ID : 0
Format : MPEG-4 Visual
Format profile : Advanced Simple@L5
Format settings, BVOP : 1
Format settings, QPel : No
Format settings, GMC : No warppoints
Format settings, Matrix : Custom
Codec ID : XVID
Codec ID/Hint : XviD
Duration : 1h 22mn
Bit rate : 1 124 Kbps
Width : 640 pixels
Height : 384 pixels
Display aspect ratio : 1.667
Frame rate : 24.000 fps
Color space : YUV
Chroma subsampling : 4:2:0
Bit depth : 8 bits
Scan type : Progressive
Compression mode : Lossy
Bits/(Pixel*Frame) : 0.190
Stream size : 662 MiB (89%)
Writing library : XviD 73
Audio #1
ID : 1
Format : MPEG Audio
Format version : Version 1
Format profile : Layer 3
Codec ID : 55
Codec ID/Hint : MP3
Duration : 1h 22mn
Bit rate mode : Constant
Bit rate : 128 Kbps
Channel(s) : 2 channels
Sampling rate : 48.0 KHz
Compression mode : Lossy
Stream size : 75.4 MiB (10%)
Alignment : Aligned on interleaves
Interleave, duration : 42 ms (1.00 video frame)
Interleave, preload duration : 504 ms
Writing library : LAME3.99r
Encoding settings : -m s -V 4 -q 2 -lowpass 17 -b 128



Скачать Рассеянный.Le.Distrait.(Пьер.Ришар).[1970.комедия.мелодрама.WEB-DLRip].[DVO].torrent без регистрации
Золото ЗОЛОТАЯ РАЗДАЧА! СКАЧАННОЕ НЕ ЗАСЧИТЫВАЕТСЯ! Золото
Дата: Зарегистрирован   [ Тип: внешний ] Как тут cкачать?
MAGNET ссылка
MAGNET ссылка


Скачать .torrent

15 KB

Статус: проверено DHT
Скачан: торрент - 103 раз, раздача полностью - 17 раз
Размер: 742 MB
Оценка:  - (Голосов: 0)
Поблагодарили: 1
Поделиться ссылкой на эту раздачу с друзьями:
В контактеFacebookОдноклассникиTwitterLivejournalМой МирLiveinternet
 

 
Показать сообщения:    


Вы не можете начинать темы
Вы не можете отвечать на сообщения
Вы не можете редактировать свои сообщения
Вы не можете удалять свои сообщения
Вы не можете голосовать в опросах
Вы не можете прикреплять файлы к сообщениям
Вы можете скачивать файлы