Loading...
Error

Скачать Опоздавшие к Обеду / Late for Dinner (У.Д. Рихтер / W.D. Richter) [1991, фантастика, драма, HDTVRip] [AVO] (Ю.Живов) + Original Eng торрент без регистрации

 
Статистика раздачи
Размер:  1,2 GB   |    Скачан:  103 раза
Сидов:  1  [  0 KB/s  ]  
 
Автор Сообщение

leon030982

[] 

Опоздавшие к Обеду / Late for Dinner

Год выпуска: 1991
Страна: США
Жанр: фантастика, драма
Продолжительность: 01:29:09
Перевод: Авторский (одноголосый, закадровый) Ю.Живов
Cубтитры: нет
Оригинальная аудиодорожка: английский

Режиссер: У.Д. Рихтер / W.D. Richter

В ролях: Питер Берг, Брайан Уиммер, Марша Гэй Харден, Cassy Friel, Питер Галлахер, Росс Мэлинджер, Стивен Хартли, Джон Проски, Бо Брундин, Дональд Хоттон

Описание: Фантастическая комедия-мелодрама о двух близких родственниках, которых в 1962 году заморозили криогеном и которые, проснувшись в современном Лос-Анджелесе, обнаружили, как изменился мир... После чего им сразу же захотелось вернуться в свой родной Санта-Фе тридцатилетней давности.

>>Сэмпл

Качество: HDTVRip
Формат: AVI
Видео кодек: XviD
Аудио кодек: AC3
Видео: 720x400 (1.80:1), 29.970 fps, XviD build 50 ~1498 kbps avg, 0.17 bit/pixel - исходник от
Аудио №1: 48 kHz, AC3 Dolby Digital, 2/0 (L,R) ch, ~224 kbps - [AVO]
Аудио №2: 48 kHz, AC3 Dolby Digital, 2/0 (L,R) ch, ~192 kbps - english
перевод Живова оцифрован и синхронизирован sasikainen с коллекционной VHS
Формат : AVI
Формат/Информация : Audio Video Interleave
Размер файла : 1,20 Гбайт
Продолжительность : 1 ч. 29 м.
Общий поток : 1933 Кбит/сек
Название фильма : Late for Dinner (1991)
Программа кодирования : VirtualDubMod 1.5.10.3 | www.virtualdub-fr.org || (build 2550/release)
Библиотека кодирования : VirtualDubMod build 2550/release
Правообладатель : sasikainen
Видео
Идентификатор : 0
Формат : MPEG-4 Visual
Профиль формата : Advanced Simple@L5
Параметр BVOP формата : 1
Параметр QPel формата : Нет
Параметр GMC формата : Без точки перехода
Параметр матрицы формата : Default (H.263)
Идентификатор кодека : XVID
Идентификатор кодека/Подсказка : XviD
Продолжительность : 1 ч. 29 м.
Битрейт : 1499 Кбит/сек
Ширина : 720 пикселей
Высота : 400 пикселей
Соотношение сторон : 16:9
Частота кадров : 29,970 кадров/сек
Цветовое пространство : YUV
Субдискретизация насыщенности : 4:2:0
Битовая глубина : 8 бит
Тип развёртки : Прогрессивная
Метод сжатия : С потерями
Бит/(Пиксели*Кадры) : 0.174
Размер потока : 956 Мбайт (78%)
Библиотека кодирования : XviD 1.2.1 (UTC 2008-12-04)
Аудио #1
Идентификатор : 1
Формат : AC-3
Формат/Информация : Audio Coding 3
Расширение режима : CM (complete main)
Параметр Endianness формата : Big
Идентификатор кодека : 2000
Продолжительность : 1 ч. 29 м.
Вид битрейта : Постоянный
Битрейт : 224 Кбит/сек
Каналы : 2 канала
Расположение каналов : Front: L R
Частота : 48,0 КГц
Битовая глубина : 16 бит
Метод сжатия : С потерями
Размер потока : 143 Мбайт (12%)
Выравнивание : Разделение по промежуткам
Продолжительность промежутка : 33 мс. (1,00 видеокадр)
Время предзагрузки промежутка : 500 мс.
Заголовок : Zhivov
Аудио #2
Идентификатор : 2
Формат : AC-3
Формат/Информация : Audio Coding 3
Расширение режима : CM (complete main)
Параметр Endianness формата : Big
Идентификатор кодека : 2000
Продолжительность : 1 ч. 29 м.
Вид битрейта : Постоянный
Битрейт : 192 Кбит/сек
Каналы : 2 канала
Расположение каналов : Front: L R
Частота : 48,0 КГц
Битовая глубина : 16 бит
Метод сжатия : С потерями
Размер потока : 122 Мбайт (10%)
Выравнивание : Разделение по промежуткам
Продолжительность промежутка : 33 мс. (1,00 видеокадр)
Время предзагрузки промежутка : 500 мс.
Заголовок : english
В самом конце фильма звучит песня I Love You For Sentimental Reasons в исполнении Linda Ronstadt



Скачать Опоздавшие.к.Обеду.Late.for.Dinner.(У.Д.Рихтер.W.D.Richter).[1991.фантастика.драма.HDTVRip].[AVO].(Ю.Живов).+.Original.Eng.torrent без регистрации
Золото ЗОЛОТАЯ РАЗДАЧА! СКАЧАННОЕ НЕ ЗАСЧИТЫВАЕТСЯ! Золото
Дата: Зарегистрирован   [ Тип: внутренний ] Как тут cкачать?
MAGNET ссылка
MAGNET ссылка


Скачать .torrent

13 KB

Статус: проверено DHT
Скачан: торрент - 103 раз, раздача полностью - 11 раз
Размер: 1,2 GB
Оценка:  - (Голосов: 0)
Поблагодарили: 2
Поделиться ссылкой на эту раздачу с друзьями:
В контактеFacebookОдноклассникиTwitterLivejournalМой МирLiveinternet
 

 
Показать сообщения:    


Вы не можете начинать темы
Вы не можете отвечать на сообщения
Вы не можете редактировать свои сообщения
Вы не можете удалять свои сообщения
Вы не можете голосовать в опросах
Вы не можете прикреплять файлы к сообщениям
Вы можете скачивать файлы