Loading...
Error

Скачать Ангел-А / Angel-A (Люк Бессон) [2005, фэнтези, драма, мелодрама, комедия, BDRip] [Dub]+[AVO]+[VO]+[Оригинал]+[Sub]x2 торрент без регистрации

 
Статистика раздачи
Размер:  1,98 GB   |    Скачан:  122 раза
Сидов:  1  [  0 KB/s  ]  
 
Автор Сообщение

Marsianka

[] 

Название: Ангел-А
Оригинальное название: Angel-A
Год выпуска: 2005
Жанр: фэнтези, драма, мелодрама, комедия
Выпущено: Франция, Apipoulai, Canal+ [fr], Europa Corp., Sofica Europacorp, TF1 Films Productions
Режиссер: Люк Бессон
В ролях: Жамель Деббуз, Рье Расмуссен, Жильбер Мелки, Серж Рябукин, Аким Шир, Эрик Балье, Луи Пора, Венус Бун, Жером Жесдон, Мишель Белло, Мишель Шесно, Оливье Клавери, Соланж Милход, Лоран Жамекур, Франк-Оливье Бонне, Аким Колур, Тони Десканвелль, Григорий Мануков, Ален Зеф, Жан-Марк Монтальто, Жиль Милан, Тодд М. Талер, Гаэль Мэриетт

О фильме: 28-летний Андре должен десятки тысяч евро различным бандитам по всему Парижу. Когда подходит срок расплаты, он понимает, что шансов расплатиться нет. И в полиции, и в американском посольстве ему отказывают в помощи. Но вот, решив покончить с собой, он видит на мосту сногсшибательную красотку в очень маленьком чёрном платье, которая прыгает в Сену. Андре бросается за ней. Спасённая девушка обещает помочь Андре во всём: она придумывает удивительные способы добывать деньги и помогает решить проблемы с кредиторами. Но тут Андре начинает задаваться вопросом почему эта восхитительная девушка так старается ради него?..



Качество: BDRip
Размер: 1.98 ГБ
Продолжительность: 01:30:38

Видео: XviD, 1575 Кбит/с, 720x304
Аудио 1: русский, 48 kHz, AC3, 6 ch, 448 kbps avg, [Дублированный]
Аудио 2: русский, 48 kHz, AC3, 6 ch, 448 kbps avg, [Авторский, Андрей Гаврилов]
Аудио 3: русский, 44.1 kHz, МР3, 6 ch, 192 kbps avg, [Любительский, Вадим Архипов]

Внешние файлы
Аудио: французский, 48 kHz, AC3, 6 ch, 448 kbps avg, [Оригинал]
Субтитры: русские
Субтитры: английские
Исходник: Кристо161 (HDtracker)

Сравнение с исходником
Общее
Полное имя : D:VideoAngel-A.2005.XviD.BDRipAngel-A.2005.eng.srt
Формат : SubRip
Размер файла : 106 Кбайт

Текст
Формат : SubRip
Метод сжатия : Без потерь

Общее
Полное имя : D:VideoAngel-A.2005.XviD.BDRipAngel-A.2005.Original.fre.ac3
Формат : AC-3
Формат/Информация : Audio Coding 3
Размер файла : 290 Мбайт
Продолжительность : 1 ч. 30 м.
Режим общего битрейта : Постоянный
Общий поток : 448 Кбит/сек

Аудио
Формат : AC-3
Формат/Информация : Audio Coding 3
Расширение режима : CM (complete main)
Параметр Endianness формата : Big
Продолжительность : 1 ч. 30 м.
Вид битрейта : Постоянный
Битрейт : 448 Кбит/сек
Каналы : 6 каналов
Расположение каналов : Front: L C R, Side: L R, LFE
Частота : 48,0 КГц
Битовая глубина : 16 бит
Метод сжатия : С потерями
Размер потока : 290 Мбайт (100%)

Общее
Полное имя : D:VideoAngel-A.2005.XviD.BDRipAngel-A.2005.rus.srt
Формат : SubRip
Размер файла : 139 Кбайт

Текст
Формат : SubRip
Метод сжатия : Без потерь

Общее
Полное имя : D:VideoAngel-A.2005.XviD.BDRipAngel-A.2005.XviD.BDRip.avi
Формат : AVI
Формат/Информация : Audio Video Interleave
Размер файла : 1,70 Гбайт
Продолжительность : 1 ч. 30 м.
Общий поток : 2681 Кбит/сек
Программа кодирования : VirtualDubMod 1.5.10.2 (build 2540/release)
Библиотека кодирования : VirtualDubMod build 2540/release

Видео
Идентификатор : 0
Формат : MPEG-4 Visual
Профиль формата : Advanced Simple@L5
Параметр BVOP формата : 1
Параметр QPel формата : Нет
Параметр GMC формата : Без точки перехода
Параметр матрицы формата : Default (H.263)
Режим смешивания : Сжатый битовый поток
Идентификатор кодека : XVID
Идентификатор кодека/Подсказка : XviD
Продолжительность : 1 ч. 30 м.
Битрейт : 1575 Кбит/сек
Ширина : 720 пикселей
Высота : 304 пикселя
Соотношение сторон : 2,35:1
Частота кадров : 24,000 кадра/сек
Цветовое пространство : YUV
Субдискретизация насыщенности : 4:2:0
Битовая глубина : 8 бит
Тип развёртки : Прогрессивная
Метод сжатия : С потерями
Бит/(Пиксели*Кадры) : 0.300
Размер потока : 1021 Мбайт (59%)
Библиотека кодирования : XviD 1.2.1 (UTC 2008-12-04)

Аудио #1
Идентификатор : 1
Формат : AC-3
Формат/Информация : Audio Coding 3
Расширение режима : CM (complete main)
Параметр Endianness формата : Big
Идентификатор кодека : 2000
Продолжительность : 1 ч. 30 м.
Вид битрейта : Постоянный
Битрейт : 448 Кбит/сек
Каналы : 6 каналов
Расположение каналов : Front: L C R, Side: L R, LFE
Частота : 48,0 КГц
Битовая глубина : 16 бит
Метод сжатия : С потерями
Размер потока : 290 Мбайт (17%)
Выравнивание : Разделение по промежуткам
Продолжительность промежутка : 42 мс. (1,00 видеокадр)
Время предзагрузки промежутка : 500 мс.

Аудио #2
Идентификатор : 2
Формат : AC-3
Формат/Информация : Audio Coding 3
Расширение режима : CM (complete main)
Параметр Endianness формата : Big
Идентификатор кодека : 2000
Продолжительность : 1 ч. 30 м.
Вид битрейта : Постоянный
Битрейт : 448 Кбит/сек
Каналы : 6 каналов
Расположение каналов : Front: L C R, Side: L R, LFE
Частота : 48,0 КГц
Битовая глубина : 16 бит
Метод сжатия : С потерями
Размер потока : 290 Мбайт (17%)
Выравнивание : Разделение по промежуткам
Продолжительность промежутка : 42 мс. (1,00 видеокадр)
Время предзагрузки промежутка : 500 мс.

Аудио #3
Идентификатор : 3
Формат : MPEG Audio
Версия формата : Version 1
Профиль формата : Layer 3
Режим : Joint stereo
Идентификатор кодека : 55
Идентификатор кодека/Подсказка : MP3
Продолжительность : 1 ч. 30 м.
Вид битрейта : Постоянный
Битрейт : 192 Кбит/сек
Каналы : 2 канала
Частота : 44,1 КГц
Метод сжатия : С потерями
Размер потока : 124 Мбайт (7%)
Выравнивание : Разделение по промежуткам
Продолжительность промежутка : 42 мс. (1,00 видеокадр)
Время предзагрузки промежутка : 500 мс.



Скачать Ангел-А.Angel-A.(Люк.Бессон).[2005.фэнтези.драма.мелодрама.комедия.BDRip].[Dub]+[AVO]+[VO]+[Оригинал]+[Sub]x2.torrent без регистрации
Золото ЗОЛОТАЯ РАЗДАЧА! СКАЧАННОЕ НЕ ЗАСЧИТЫВАЕТСЯ! Золото
Дата: Зарегистрирован   [ Тип: внутренний ] Как тут cкачать?
MAGNET ссылка
MAGNET ссылка


Скачать .torrent

21 KB

Статус: проверено DHT
Скачан: торрент - 122 раз, раздача полностью - 21 раз
Размер: 1,98 GB
Оценка:  - (Голосов: 0)
Поблагодарили: 1
Поделиться ссылкой на эту раздачу с друзьями:
В контактеFacebookОдноклассникиTwitterLivejournalМой МирLiveinternet
 

 
Показать сообщения:    


Вы не можете начинать темы
Вы не можете отвечать на сообщения
Вы не можете редактировать свои сообщения
Вы не можете удалять свои сообщения
Вы не можете голосовать в опросах
Вы не можете прикреплять файлы к сообщениям
Вы можете скачивать файлы