Loading...
Error

Скачать Осторожно! Двери закрываются / Sliding Doors (Питер Хауит / Peter Howitt) [1998, Фантастика, фэнтези, драма, мелодрама, комедия, BDRip] [Dub] (Невафильм) торрент без регистрации

 
Статистика раздачи
Размер:  1,45 GB   |    Скачан:  102 раза
Сидов:  1  [  0 KB/s  ]  
 
Автор Сообщение

leon030982

[] 

Осторожно! Двери закрываются

Год выпуска: 1998
Страна: США, Великобритания
Жанр: Фантастика, фэнтези, драма, мелодрама, комедия
Продолжительность: 01:39:07
Перевод: Профессиональный (дублированный) Невафильм
Cубтитры: нет
Оригинальная аудиодорожка: нет

Режиссёр: Питер Хауит / Peter Howitt

В ролях: Гвинет Пэлтроу, Джон Ханна, Джон Линч, Джинн Трипплхорн, Зара Тернер, Дуглас МакФерран, Пол Брайтвелл, Нина Янг, Вирджиния МакКенна, Кевин МакНэлли, Терри Инглиш, Пол Стэйси, Питер Хауит, Джоэнна Рот, Нил Стьюк, Эвелин Дуа, Линда Бротон, Шарлотта Фрайер, Пип Миллер, Кристофер Вилльерс, Меррин Джонс, Элла Джонс, Джули Макдауэлл

Описание: Две вариативные истории о молодой англичанке Хелен Куилли, чья судьба резко меняется в зависимости от того, успеет она на поезд или нет. Фильм, сюжет которого построен по логике: "а что, если бы..?". Двери вагона в метро, через которые успела или не успела проскочить героиня, - это ключевая точка, в которой начинается, то самое "если бы". Что было бы, если бы героиня не успела на поезд, если бы не приехала из-за этого с работы раньше и если бы не застала возлюбленного в постели с другой женщиной? В конце фильма... вы узнаете ответ на этот вопрос.





Качество видео: BDRip (Исходник: Blu-Ray Remux (1080p))
Формат: AVI
Видео кодек: XviD
Аудио кодек: AC3
Видео: XviD, 720x400 (16:9), 23.976, 1907 Кбит/с
Аудио: Русский, Dolby AC3, 48000 Гц, 192 Кбит/с, 2 канала (Стерео)

Автор рипа - ivandubskoj
Общее
Полное имя : Ostorojno.dveri.zakrivautsya.1998.BDRip.avi
Формат : AVI
Формат/Информация : Audio Video Interleave
Размер файла : 1,45 Гбайт
Продолжительность : 1 ч. 39 м.
Общий поток : 2107 Кбит/сек
Название фильма : Осторожно! Двери закрываются / Sliding Doors (1998) BDRip
Жанр : Фантастика, фэнтези, драма, мелодрама, комедия
Дата записи : 02.03.2014
Программа кодирования : VirtualDubMod 1.5.10.3 (build 2550/release)
Библиотека кодирования : VirtualDubMod build 2550/release
Правообладатель : rip by ivandubskoj
Видео
Идентификатор : 0
Формат : MPEG-4 Visual
Профиль формата : Advanced Simple@L5
Параметр BVOP формата : 1
Параметр QPel формата : Нет
Параметр GMC формата : Без точки перехода
Параметр матрицы формата : Выборочная
Идентификатор кодека : XVID
Идентификатор кодека/Подсказка : XviD
Продолжительность : 1 ч. 39 м.
Битрейт : 1907 Кбит/сек
Ширина : 720 пикселей
Высота : 400 пикселей
Соотношение сторон : 16:9
Частота кадров : 23,976 кадра/сек
Цветовое пространство : YUV
Субдискретизация насыщенности : 4:2:0
Битовая глубина : 8 бит
Тип развёртки : Прогрессивная
Метод сжатия : С потерями
Бит/(Пиксели*Кадры) : 0.275
Размер потока : 1,32 Гбайт (90%)
Библиотека кодирования : XviD 73
Аудио
Идентификатор : 1
Формат : AC-3
Формат/Информация : Audio Coding 3
Расширение режима : CM (complete main)
Параметр Endianness формата : Big
Идентификатор кодека : 2000
Продолжительность : 1 ч. 39 м.
Вид битрейта : Постоянный
Битрейт : 192 Кбит/сек
Каналы : 2 канала
Расположение каналов : Front: L R
Частота : 48,0 КГц
Битовая глубина : 16 бит
Метод сжатия : С потерями
Размер потока : 136 Мбайт (9%)
Выравнивание : Разделение по промежуткам
Продолжительность промежутка : 64 мс. (1,53 видеокадра)
Время предзагрузки промежутка : 500 мс.
Заголовок : Russian (DUB, Невафильм)



Скачать Осторожно!.Двери.закрываются.Sliding.Doors.(Питер.Хауит.Peter.Howitt).[1998.Фантастика.фэнтези.драма.мелодрама.комедия.BDRip].[Dub].(Невафильм).torrent без регистрации
Золото ЗОЛОТАЯ РАЗДАЧА! СКАЧАННОЕ НЕ ЗАСЧИТЫВАЕТСЯ! Золото
Дата: Зарегистрирован   [ Тип: внутренний ] Как тут cкачать?
MAGNET ссылка
MAGNET ссылка


Скачать .torrent

15 KB

Статус: проверено DHT
Скачан: торрент - 102 раз, раздача полностью - 38 раз
Размер: 1,45 GB
Оценка:  - (Голосов: 0)
Поблагодарили: 1
Поделиться ссылкой на эту раздачу с друзьями:
В контактеFacebookОдноклассникиTwitterLivejournalМой МирLiveinternet
 

 
Показать сообщения:    


Вы не можете начинать темы
Вы не можете отвечать на сообщения
Вы не можете редактировать свои сообщения
Вы не можете удалять свои сообщения
Вы не можете голосовать в опросах
Вы не можете прикреплять файлы к сообщениям
Вы можете скачивать файлы