Loading...
Error

Скачать Меч Бушидо / The sword of bushido (Адриан Карр) [1990, боевик, DVDRip] [DVO]+[AVO]+[VO]x2+[Оригинал] торрент без регистрации

 
Статистика раздачи
Размер:  2,05 GB   |    Скачан:  107 раз

Полного источника не было: 19 минут

 
Автор Сообщение

Marsianka

[] 

Страна: Гонконг, Австралия
Производство: John Lamond Motion Picture Enterprises
Жанр: боевик
Год выпуска: 1990

Продолжительность: 01:40:06

Перевод: Профессиональный двухголосый, авторский, профессиональный одноголосый

Оригинальная аудиодорожка: Английская

Режиссер: Адриан Карр

В ролях: Ричард Нортон, Рошель Ашана, Тоширо Обата, Джуди Грин, Миррен Ли, Гленн Руеланд, Сомбун Футарот, Гай Норрис


Описание: Разбирая вещи оставшиеся после смерти бабушки Зак Коннорс заинтересовался историей своего деда пропавшего через 3 дня после окончания Второй мировой войны. Это приводит его в Таиланд, в поисках следов деда и легендарного меча за который назначена награда в 2 миллиона долларов. И везде его ждут приключения и опасности



Исходник: DVD5 R2

Тип релиза: DVDRip

Контейнер: AVI

Семпл

Видео: XviD, 2253 Кбит/с, 640x480
Аудио: Русский, английский (АС3, 2 ch, 192 Кбит/с)

1. Профессиональный двухголосый
2. Авторский (Дохалов)
3. Профессиональный одноголосый (с VHS)
4. Профессиональный одноголосый (аналогичен Аудио 3, но лучше по звучанию, в дорожке местами присутствуют нарастающие шумы)
5. Английский
Общее
Полное имя : D:залитьМеч Бушидо.avi
Формат : AVI
Формат/Информация : Audio Video Interleave
Профиль формата : OpenDML
Размер файла : 2,05 Гбайт
Продолжительность : 1 ч. 40 м.
Общий поток : 2936 Кбит/сек
Программа кодирования : VirtualDubMod 1.5.10.2 (build 2540/release)
Библиотека кодирования : VirtualDubMod build 2540/release

Видео
Идентификатор : 0
Формат : MPEG-4 Visual
Профиль формата : Advanced Simple@L5
Параметр BVOP формата : 2
Параметр QPel формата : Нет
Параметр GMC формата : Без точки перехода
Параметр матрицы формата : Default (MPEG)
Режим смешивания : Сжатый битовый поток
Идентификатор кодека : XVID
Идентификатор кодека/Подсказка : XviD
Продолжительность : 1 ч. 40 м.
Битрейт : 1939 Кбит/сек
Ширина : 640 пикселей
Высота : 480 пикселей
Соотношение сторон : 4:3
Частота кадров : 23,976 кадра/сек
Цветовое пространство : YUV
Субдискретизация насыщенности : 4:2:0
Битовая глубина : 8 бит
Тип развёртки : Прогрессивная
Метод сжатия : С потерями
Бит/(Пиксели*Кадры) : 0.263
Размер потока : 1,36 Гбайт (66%)
Библиотека кодирования : XviD 1.2.1 (UTC 2008-12-04)

Аудио #1
Идентификатор : 1
Формат : AC-3
Формат/Информация : Audio Coding 3
Расширение режима : CM (complete main)
Параметр Endianness формата : Big
Идентификатор кодека : 2000
Продолжительность : 1 ч. 40 м.
Вид битрейта : Постоянный
Битрейт : 192 Кбит/сек
Каналы : 2 канала
Расположение каналов : Front: L R
Частота : 48,0 КГц
Битовая глубина : 16 бит
Метод сжатия : С потерями
Размер потока : 137 Мбайт (7%)
Выравнивание : Разделение по промежуткам
Продолжительность промежутка : 42 мс. (1,00 видеокадр)
Время предзагрузки промежутка : 500 мс.

Аудио #2
Идентификатор : 2
Формат : AC-3
Формат/Информация : Audio Coding 3
Расширение режима : CM (complete main)
Параметр Endianness формата : Big
Идентификатор кодека : 2000
Продолжительность : 1 ч. 40 м.
Вид битрейта : Постоянный
Битрейт : 192 Кбит/сек
Каналы : 2 канала
Расположение каналов : Front: L R
Частота : 48,0 КГц
Битовая глубина : 16 бит
Метод сжатия : С потерями
Размер потока : 137 Мбайт (7%)
Выравнивание : Разделение по промежуткам
Продолжительность промежутка : 42 мс. (1,00 видеокадр)
Время предзагрузки промежутка : 500 мс.

Аудио #3
Идентификатор : 3
Формат : AC-3
Формат/Информация : Audio Coding 3
Расширение режима : CM (complete main)
Параметр Endianness формата : Big
Идентификатор кодека : 2000
Продолжительность : 1 ч. 40 м.
Вид битрейта : Постоянный
Битрейт : 192 Кбит/сек
Каналы : 2 канала
Расположение каналов : Front: L R
Частота : 48,0 КГц
Битовая глубина : 16 бит
Метод сжатия : С потерями
Размер потока : 137 Мбайт (7%)
Выравнивание : Разделение по промежуткам
Продолжительность промежутка : 42 мс. (1,00 видеокадр)
Время предзагрузки промежутка : 500 мс.

Аудио #4
Идентификатор : 4
Автор рипа:



Скачать Меч.Бушидо.The.sword.of.bushido.(Адриан.Карр).[1990.боевик.DVDRip].[DVO]+[AVO]+[VO]x2+[Оригинал].torrent без регистрации
Золото ЗОЛОТАЯ РАЗДАЧА! СКАЧАННОЕ НЕ ЗАСЧИТЫВАЕТСЯ! Золото
Дата: Зарегистрирован   [ Тип: внутренний ] Как тут cкачать?
MAGNET ссылка
MAGNET ссылка


Скачать .torrent

12 KB

Статус: проверено DHT
Скачан: торрент - 107 раз, раздача полностью - 37 раз
Размер: 2,05 GB
Оценка:  - (Голосов: 0)
Поблагодарили: 2
Поделиться ссылкой на эту раздачу с друзьями:
В контактеFacebookОдноклассникиTwitterLivejournalМой МирLiveinternet
 

 
Показать сообщения:    


Вы не можете начинать темы
Вы не можете отвечать на сообщения
Вы не можете редактировать свои сообщения
Вы не можете удалять свои сообщения
Вы не можете голосовать в опросах
Вы не можете прикреплять файлы к сообщениям
Вы можете скачивать файлы