Loading...
Error

Скачать Метео / Meteo (Andras Monory Mesz) [1990, фантастика, драма, детектив, DVDRip-AVC] [AVO]+[Sub] торрент без регистрации

 
Статистика раздачи
Размер:  1,68 GB   |    Скачан:  94 раза
Сидов:  1  [  0 KB/s  ]  
 
Автор Сообщение

Marsianka

[] 

Год выпуска: 1990
Жанр: фантастика, драма, детектив
Режиссер: Andras Monory Mesz
В ролях: Кароли Эперджез /Karoly Eperjes/, Лазло Кистамаш /LaszlЈ Kistamas/, Золтан Варга /Zoltan Varga/, Сесилиа Ецтергалёс /Cecilia Esztergalyos/ и другие

Описание:
Действие фильма происходит в постядерном мире или параллельной реальности, или где-то еще, в общем там, где существует страшное разделение между богатыми и бедными, бедные кварталы находятся на нижних ярусах Города и каждый, кто там живет мечтает вырваться из этих химзаводских помоек.
В неком здании живет парень по фамилии Экерман, блаженный компьютерный гений, который путем сложных компьютерных систем оказывает влияние на погоду, в остальное время этот чувак ловит кайф, сидя в ванной в наушниках, маске, и видит очень странные и любопытные сны-видения. Как водится, вокруг таких людей отирается разная шушера, мечтающая срубить бабла за счет других. Двое мелковатых пройдох-жуликов с пистолетом путем полуугроз-полуподкупа заставляют Экермана работать над системой, которая позволила бы им всегда выиграть на лошадиных скачках. И вот когда у парней почти что огромный куш в кармане случается непредвиденное.



Страна: Венгрия, Hunnia FilmstЄdiЈ
Продолжительность: 01:38:08
Перевод: Авторский одноголосый (В.Рутилов)

Синхронизация русской дорожки - sasha20072007 (kosmoaelita)

Перевод с англ. и озвучка по запросу sergosip - В.Рутилов (fiendover)

Качество: DVDRip-AVC
Формат: MKV
Видео: x264, 2000 кбит/с, 720x576@1024x576, 25 к/с
Аудио 1: Русский (AC3, 2 ch, 224 Кбит/с)
Аудио 2: Английский (AC3, 2 ch, 224 Кбит/с)
Субтитры : Английские
General
Unique ID : 178459747367666492916918741837929471647 (0x864218DDA9DCF0118CC5C20C79635E9F)
Complete name : D:Meteo(1990).x264.DVDRip.AVC.[kosmoaelita].mkv
Format : Matroska
Format version : Version 4 / Version 2
File size : 1.68 GiB
Duration : 1h 38mn
Overall bit rate : 2 452 Kbps
Movie name : Meteo (1990)
Encoded date : UTC 2014-03-02 01:15:18
Writing application : mkvmerge v6.6.0 ('The Edge Of The In Between') built on Dec 7 2013 13:21:48
Writing library : libebml v1.3.0 + libmatroska v1.4.1

Video
ID : 1
Format : AVC
Format/Info : Advanced Video Codec
Format profile : Main@L3.1
Format settings, CABAC : Yes
Format settings, ReFrames : 8 frames
Codec ID : V_MPEG4/ISO/AVC
Duration : 1h 38mn
Bit rate : 2 000 Kbps
Width : 720 pixels
Height : 576 pixels
Display aspect ratio : 16:9
Frame rate mode : Constant
Frame rate : 25.000 fps
Standard : PAL
Color space : YUV
Chroma subsampling : 4:2:0
Bit depth : 8 bits
Scan type : Progressive
Bits/(Pixel*Frame) : 0.193
Stream size : 1.34 GiB (80%)
Title : kosmoaelita.com
Writing library : x264 core 130 r2273 b3065e6
Encoding settings : cabac=1 / ref=8 / deblock=1:-3:-3 / analyse=0x1:0x131 / me=umh / subme=7 / psy=1 / psy_rd=1.00:0.15 / mixed_ref=1 / me_range=16 / chroma_me=1 / trellis=2 / 8x8dct=0 / cqm=0 / deadzone=21,11 / fast_pskip=0 / chroma_qp_offset=-3 / threads=3 / lookahead_threads=1 / sliced_threads=0 / nr=0 / decimate=1 / interlaced=0 / bluray_compat=0 / constrained_intra=0 / bframes=5 / b_pyramid=2 / b_adapt=2 / b_bias=0 / direct=3 / weightb=1 / open_gop=0 / weightp=2 / keyint=250 / keyint_min=25 / scenecut=40 / intra_refresh=0 / rc_lookahead=60 / rc=2pass / mbtree=1 / bitrate=2000 / ratetol=1.0 / qcomp=0.60 / qpmin=0 / qpmax=69 / qpstep=4 / cplxblur=20.0 / qblur=0.5 / vbv_maxrate=14000 / vbv_bufsize=14000 / nal_hrd=none / ip_ratio=1.40 / aq=1:1.00
Language : English
Default : Yes
Forced : No
Color primaries : Generic film

Audio #1
ID : 2
Format : AC-3
Format/Info : Audio Coding 3
Mode extension : CM (complete main)
Format settings, Endianness : Big
Codec ID : A_AC3
Duration : 1h 38mn
Bit rate mode : Constant
Bit rate : 224 Kbps
Channel(s) : 2 channels
Channel positions : Front: L R
Sampling rate : 48.0 KHz
Bit depth : 16 bits
Compression mode : Lossy
Stream size : 157 MiB (9%)
Title : Русский ЛО (В.Рутилов)
Language : Russian
Default : Yes
Forced : No

Audio #2
ID : 3
Format : AC-3
Format/Info : Audio Coding 3
Mode extension : CM (complete main)
Format settings, Endianness : Big
Codec ID : A_AC3
Duration : 1h 38mn
Bit rate mode : Constant
Bit rate : 224 Kbps
Channel(s) : 2 channels
Channel positions : Front: L R
Sampling rate : 48.0 KHz
Bit depth : 16 bits
Compression mode : Lossy
Stream size : 157 MiB (9%)
Language : Hungarian
Default : No
Forced : No

Text #1
ID : 4
Format : VobSub
Muxing mode : zlib
Codec ID : S_VOBSUB
Codec ID/Info : The same subtitle format used on DVDs
Title : English
Language : English
Default : Yes
Forced : No

Text #2
ID : 5
Format : VobSub
Muxing mode : zlib
Codec ID : S_VOBSUB
Codec ID/Info : The same subtitle format used on DVDs
Title : English
Language : English
Default : No
Forced : No

Menu
00:00:00.000 : :Chapter 01
00:09:55.960 : :Chapter 02
00:19:02.120 : :Chapter 03
00:25:19.440 : :Chapter 04
00:35:22.960 : :Chapter 05
00:42:03.600 : :Chapter 06
00:52:07.480 : :Chapter 07
01:00:37.000 : :Chapter 08
01:08:42.680 : :Chapter 09
01:17:35.840 : :Chapter 10
01:26:53.240 : :Chapter 11
01:35:10.480 : :Chapter 12



Скачать Метео.Meteo.(Andras.Monory.Mesz).[1990.фантастика.драма.детектив.DVDRip-AVC].[AVO]+[Sub].torrent без регистрации
Золото ЗОЛОТАЯ РАЗДАЧА! СКАЧАННОЕ НЕ ЗАСЧИТЫВАЕТСЯ! Золото
Дата: Зарегистрирован   [ Тип: внутренний ] Как тут cкачать?
MAGNET ссылка
MAGNET ссылка


Скачать .torrent

17 KB

Статус: проверено DHT
Скачан: торрент - 94 раз, раздача полностью - 26 раз
Размер: 1,68 GB
Оценка:  - (Голосов: 0)
Поблагодарили: 2
Поделиться ссылкой на эту раздачу с друзьями:
В контактеFacebookОдноклассникиTwitterLivejournalМой МирLiveinternet
 

 
Показать сообщения:    


Вы не можете начинать темы
Вы не можете отвечать на сообщения
Вы не можете редактировать свои сообщения
Вы не можете удалять свои сообщения
Вы не можете голосовать в опросах
Вы не можете прикреплять файлы к сообщениям
Вы можете скачивать файлы