Loading...
Error

Скачать Вздерни их повыше / Hang 'Em High (Тед Пост) [1968, триллер, криминал, вестерн, BDRip-AVC][MVO]x2 торрент без регистрации

 
Статистика раздачи
Размер:  1,76 GB   |    Скачан:  109 раз
Сидов:  1  [  0 KB/s  ]  
 
Автор Сообщение

Marsianka

[] 

Вздерни их повыше / Hang 'Em High (1968) BDRip-AVC | iPhone | P


Название: Вздерни их повыше
Оригинальное название: Hang 'Em High
Год выхода: 1968
Жанр: триллер, криминал, вестерн
Режиссер: Тед Пост
В ролях: Клинт Иствуд, Ингер Стивенс, Эд Бегли, Пэт Хингл, Бен Джонсон, Чарльз МакГроу, Рут Уайт, Брюс Дерн, Алан Хейл мл., Арлин Голонка

О фильме:
Джеда Купера ошибочно приняли за грабителя и убийцу, угнавшего чужой скот. Продажный судья Уилсон приговорил героя к «суду линча» через повешение. Раненый Ковбой чудом остался жив, только потому, что местный шериф подрезал веревку



Страна: США
Студия: Leonard Freeman Production, The Malpaso Company
Продолжительность: 01:54:39
Перевод: Русский профессиональный многоголосый закадровый

Файл
Кодек: H.264
Качество: BDRip-AVC [480p] | iPhone
Видео: 640x460@852x460 (1.85:1) at 23.976 fps, AVC at 1800 kbps
1: ААС 2.0 129 kbps - Русский профессиональный многоголосый закадровый (SomeWax)
2: ААС 2.0 129 kbps - Русский профессиональный многоголосый закадровый (DVD-Magic)
3: ААС 2.0 129 kbps - Английский
Субтитры: Отсутствуют

General
Complete name : C:CREATE480outHang.em High.1968 (SD).m4v
Format : MPEG-4
Codec ID : M4V
File size : 1.76 GiB
Duration : 1h 54mn
Overall bit rate mode : Variable
Overall bit rate : 2 204 Kbps
Movie name : Вздерни их повыше
Performer : Ted Post
Genre : Western
Recorded date : UTC 1968-08-03 07:00:00
Encoded date : UTC 2014-03-03 17:01:23
Tagged date : UTC 2014-03-03 17:21:41
Copyright : Leonard Freeman Production, The Malpaso Company
Cover : Yes
Comment : «The hanging was the best show in town. But they made two mistakes. They hung the wrong man and they didn't finish the job»
sonm : Hang 'Em High
desc : Джеда Купера ошибочно приняли за грабителя и убийцу, угнавшего чужой скот. Продажный судья Уилсон приговорил героя к "суду линча" через повешение. Раненый Ковбой чудом остался жив, только потому, что местный шериф подрезал веревку...
ldes : Джеда Купера ошибочно приняли за грабителя и убийцу, угнавшего чужой скот. Продажный судья Уилсон приговорил героя к "суду линча" через повешение. Раненый Ковбой чудом остался жив, только потому, что местный шериф подрезал веревку...
stik : 9
rtng : 0
cnID : 284072000
xid : Apple:vendor_id:1968-10862
iTunEXTC : mpaa|PG-13|300|

Video #1
ID : 1
Format : AVC
Format/Info : Advanced Video Codec
Format profile : Baseline@L3.0
Format settings, CABAC : No
Format settings, ReFrames : 2 frames
Codec ID : avc1
Codec ID/Info : Advanced Video Coding
Duration : 1h 54mn
Bit rate : 1 800 Kbps
Maximum bit rate : 6 580 Kbps
Width : 640 pixels
Height : 460 pixels
Display aspect ratio : 1.85:1
Frame rate mode : Constant
Frame rate : 23.976 fps
Color space : YUV
Chroma subsampling : 4:2:0
Bit depth : 8 bits
Scan type : Progressive
Bits/(Pixel*Frame) : 0.255
Stream size : 1.44 GiB (82%)
Title : Hang _em High _1968_
Writing library : x264 core 140 r2377+40 929f149 tMod [8-bit@4:2:0 X86_64]
Encoding settings : cabac=0 / ref=2 / deblock=1:-2:-2 / analyse=0x1:0x131 / me=umh / subme=7 / psy=1 / fade_compensate=1.00 / psy_rd=1.00:0.10 / mixed_ref=1 / me_range=32 / chroma_me=1 / trellis=2 / 8x8dct=0 / cqm=0 / deadzone=21,11 / fast_pskip=0 / chroma_qp_offset=-3 / threads=12 / lookahead_threads=2 / sliced_threads=0 / nr=0 / decimate=0 / interlaced=0 / bluray_compat=0 / constrained_intra=0 / fgo=0 / bframes=0 / weightp=0 / keyint=250 / keyint_min=23 / scenecut=40 / intra_refresh=0 / rc_lookahead=80 / rc=2pass / mbtree=1 / bitrate=1800 / ratetol=1.0 / qcomp=0.60 / qpmin=0:0:0 / qpmax=69:69:69 / qpstep=4 / cplxblur=20.0 / qblur=0.5 / vbv_maxrate=5000 / vbv_bufsize=5000 / nal_hrd=none / filler=0 / ip_ratio=1.35 / aq=4:0.90 / aq-sensitivity=10.00 / aq-factor=1.00:1.00:1.00 / aq2=0 / aq3=0
Language : English
Encoded date : UTC 2014-03-03 17:01:23
Tagged date : UTC 2014-03-03 17:01:59
Matrix coefficients : BT.709

Video #2
ID : 6
Format : JPEG
Codec ID : jpeg
Duration : 1h 54mn
Bit rate mode : Variable
Bit rate : 2 511 bps
Width : 640 pixels
Height : 345 pixels
Display aspect ratio : 1.85:1
Frame rate mode : Variable
Frame rate : 0.005 fps
Minimum frame rate : 0.002 fps
Maximum frame rate : 0.016 fps
Color space : YUV
Chroma subsampling : 4:2:0
Bit depth : 8 bits
Compression mode : Lossy
Bits/(Pixel*Frame) : 2.274
Stream size : 1.92 MiB (0%)
Language : English
Encoded date : UTC 2014-03-03 17:21:33
Tagged date : UTC 2014-03-03 17:21:34

Audio #1
ID : 2
Format : AAC
Format/Info : Advanced Audio Codec
Format profile : LC
Codec ID : 40
Duration : 1h 54mn
Bit rate mode : Variable
Bit rate : 132 Kbps
Maximum bit rate : 154 Kbps
Channel(s) : 2 channels
Channel positions : Front: L R
Sampling rate : 48.0 KHz
Compression mode : Lossy
Stream size : 110 MiB (6%)
Title : MVO SomeWax
Language : Russian
Encoded date : UTC 2014-03-03 17:01:47
Tagged date : UTC 2014-03-03 17:01:59

Audio #2
ID : 3
Format : AAC
Format/Info : Advanced Audio Codec
Format profile : LC
Codec ID : 40
Duration : 1h 54mn
Bit rate mode : Variable
Bit rate : 137 Kbps
Maximum bit rate : 148 Kbps
Channel(s) : 2 channels
Channel positions : Front: L R
Sampling rate : 48.0 KHz
Compression mode : Lossy
Stream size : 112 MiB (6%)
Title : MVO DVD_Magic
Language : Russian
Encoded date : UTC 2014-03-03 17:01:52
Tagged date : UTC 2014-03-03 17:01:59

Audio #3
ID : 4
Format : AAC
Format/Info : Advanced Audio Codec
Format profile : LC
Codec ID : 40
Duration : 1h 54mn
Bit rate mode : Variable
Bit rate : 122 Kbps
Maximum bit rate : 150 Kbps
Channel(s) : 2 channels
Channel positions : Front: L R
Sampling rate : 48.0 KHz
Compression mode : Lossy
Stream size : 100 MiB (6%)
Language : English
Encoded date : UTC 2014-03-03 16:59:18
Tagged date : UTC 2014-03-03 17:01:59

Menu
ID : 5
Codec ID : text
Duration : 1h 54mn
Language : English
Encoded date : UTC 2014-03-03 17:02:59
Tagged date : UTC 2014-03-03 17:02:59
Bit rate mode : CBR

Sort Name: Hang 'Em High
XID: Apple:vendor_id:1968-10862
contentID: 284072000
Copyright: Leonard Freeman Production, The Malpaso Company
Screenwriters: Леонард Фриман, Мэл Голдберг
Producers: Леонард Фриман, Ирвинг Л. Леонард, Роберт Стэмблер
Director: Тед Пост
Cast: Клинт Иствуд, Ингер Стивенс, Эд Бегли, Пэт Хингл, Бен Джонсон, Чарльз МакГроу, Рут Уайт, Брюс Дерн, Алан Хейл мл., Арлин Голонка
Studio: Leonard Freeman Production, The Malpaso Company
Rating: 4
Long Deion: Джеда Купера ошибочно приняли за грабителя и убийцу, угнавшего чужой скот. Продажный судья Уилсон приговорил героя к "суду линча" через повешение. Раненый Ковбой чудом остался жив, только потому, что местный шериф подрезал веревку...
Deion: Джеда Купера ошибочно приняли за грабителя и убийцу, угнавшего чужой скот. Продажный судья Уилсон приговорил героя к "суду линча" через повешение. Раненый Ковбой чудом остался жив, только потому, что местный шериф подрезал веревку...
Release Date: 1968-08-03T07:00:00Z
Genre: Western
Comments: «The hanging was the best show in town. But they made two mistakes. They hung the wrong man and they didn't finish the job»
Artist: Ted Post
Name: Вздерни их повыше

x264 [info]: frame I:1774 Avg QP:21.94 size: 31784
x264 [info]: frame P:163168 Avg QP:23.34 size: 9140
x264 [info]: mb I I16..4: 26.5% 0.0% 73.5%
x264 [info]: mb P I16..4: 0.7% 0.0% 0.9% P16..4: 61.2% 19.9% 9.5% 0.9% 0.4% skip: 6.6%
x264 [info]: coded y,uvDC,uvAC intra: 73.0% 65.3% 25.7% inter: 50.9% 31.8% 5.6%
x264 [info]: i16 v,h,dc,p: 47% 14% 16% 23%
x264 [info]: i4 v,h,dc,ddl,ddr,vr,hd,vl,hu: 23% 11% 21% 8% 8% 10% 6% 8% 5%
x264 [info]: i8c dc,h,v,p: 63% 12% 20% 5%
x264 [info]: ref P L0: 71.6% 28.4%
x264 [info]: kb/s:1799.84



Скачать Вздерни.их.повыше.Hang.'Em.High.(Тед.Пост).[1968.триллер.криминал.вестерн.BDRip-AVC][MVO]x2.torrent без регистрации
Золото ЗОЛОТАЯ РАЗДАЧА! СКАЧАННОЕ НЕ ЗАСЧИТЫВАЕТСЯ! Золото
Дата: Зарегистрирован   [ Тип: внутренний ] Как тут cкачать?
MAGNET ссылка
MAGNET ссылка


Скачать .torrent

18 KB

Статус: проверено DHT
Скачан: торрент - 109 раз, раздача полностью - 1 раз
Размер: 1,76 GB
Оценка:  - (Голосов: 0)
Поблагодарили: 2
Поделиться ссылкой на эту раздачу с друзьями:
В контактеFacebookОдноклассникиTwitterLivejournalМой МирLiveinternet
 

 
Показать сообщения:    


Вы не можете начинать темы
Вы не можете отвечать на сообщения
Вы не можете редактировать свои сообщения
Вы не можете удалять свои сообщения
Вы не можете голосовать в опросах
Вы не можете прикреплять файлы к сообщениям
Вы можете скачивать файлы