Loading...
Error

Скачать Малютка Чорвен, Боцман и Мозес / Tjorven, Batsman och Moses (Улле Хелльбум) [1964, семейный, BDRip-AVC] [MVO] торрент без регистрации

 
Статистика раздачи
Размер:  1,46 GB   |    Скачан:  107 раз
Сидов:  3  [  0 KB/s  ]  
 
Автор Сообщение

Marsianka

[] 


Страна: Швеция / Artfilm, Svensk Filmindustri (SF) AB

Жанр: семейный
Год выпуска: 1964
Продолжительность: 01:32:15
Перевод: Профессиональный (многоголосый закадровый) - студия «Омикрон»
Cубтитры: нет
Оригинальная аудиодорожка: нет

Режиссер: Улле Хелльбум / Olle Hellbom

В ролях: Торстен Лиллиекрона, Луиз Эдлинд, Бьёрн Сёдебэк, Урбан Страндт, Стивен Линдхольм, Бенгт Эклунд, Эва Стиберг, Лиллемор Остерлунд, Битте Ульвског, Мария Йоханссон...

Описание: История о весёлых приключениях шведских ребятишек, живущих в небольшом рыбацком поселке на острове Сальткрока.

Автор произведения: Астрид Анна Эмилия Линдгрен (швед. Astrid Anna Emilia Lindgren, урождённая Эрикссон, швед. Ericsson; 14 ноября 1907, Виммербю, Швеция 28 января 2002, Стокгольм, Швеция) шведская писательница, автор ряда всемирно известных книг для детей, в том числе «Карлсон, который живёт на крыше» и тетралогии про Пеппи Длинный чулок. На русском языке её книги стали известны и очень популярны благодаря переводу Лилианны Лунгиной.



Качество: BDRip-AVC / BDRemux 1080p
Формат: MKV

Видео: 944x530 (16:9), 24.000 fps, H264 ~ 1809 kbps avg, 0.151 bit/pixel
Аудио: 48 kHz, Dolby AC3, 6 ch, 448 kbps, русский
Дополнительно: Фильм разбит на главы, как на оригинальном Blu-ray диске.

Раздача от:

Общее
Полное имя : Malyutka.Chorven.1964.P.BDRip-AVC_[New-Team]_by_avproh.mkv
Формат : Matroska
Версия формата : Version 4 / Version 2
Размер файла : 1,46 Гбайт
Продолжительность : 1 ч. 32 м.
Общий поток : 2259 Кбит/сек
Дата кодирования : UTC 2014-03-04 08:38:54
Программа кодирования : mkvmerge v6.8.0 ('Theme for Great Cities') 64bit built on Mar 2 2014 21:34:26
Библиотека кодирования : libebml v1.3.0 + libmatroska v1.4.1

Видео
Идентификатор : 1
Формат : AVC
Формат/Информация : Advanced Video Codec
Профиль формата : High@L4.1
Параметр CABAC формата : Да
Параметр ReFrames формата : 6 кадров
Идентификатор кодека : V_MPEG4/ISO/AVC
Продолжительность : 1 ч. 32 м.
Битрейт : 1809 Кбит/сек
Ширина : 944 пикселя
Высота : 530 пикселей
Соотношение сторон : 16:9
Режим частоты кадров : Постоянный
Частота кадров : 24,000 кадра/сек
Цветовое пространство : YUV
Субдискретизация насыщенности : 4:2:0
Битовая глубина : 8 бит
Тип развёртки : Прогрессивная
Бит/(Пиксели*Кадры) : 0.151
Размер потока : 1,14 Гбайт (78%)
Библиотека кодирования : x264 core 138 r2356 a1d3d17
Настройки программы : cabac=1 / ref=6 / deblock=1:-3:-2 / analyse=0x3:0x113 / me=umh / subme=10 / psy=1 / psy_rd=1.00:0.05 / mixed_ref=1 / me_range=32 / chroma_me=1 / trellis=2 / 8x8dct=1 / cqm=0 / deadzone=21,11 / fast_pskip=0 / chroma_qp_offset=-3 / threads=9 / lookahead_threads=1 / sliced_threads=0 / nr=0 / decimate=0 / interlaced=0 / bluray_compat=0 / constrained_intra=0 / bframes=8 / b_pyramid=2 / b_adapt=2 / b_bias=0 / direct=3 / weightb=1 / open_gop=0 / weightp=2 / keyint=240 / keyint_min=24 / scenecut=40 / intra_refresh=0 / rc_lookahead=40 / rc=2pass / mbtree=1 / bitrate=1809 / ratetol=1.0 / qcomp=0.60 / qpmin=0 / qpmax=69 / qpstep=4 / cplxblur=20.0 / qblur=0.5 / ip_ratio=1.40 / aq=1:1.00
Язык : Swedish
Default : Да
Forced : Нет

Аудио
Идентификатор : 2
Формат : AC-3
Формат/Информация : Audio Coding 3
Расширение режима : CM (complete main)
Параметр Endianness формата : Big
Идентификатор кодека : A_AC3
Продолжительность : 1 ч. 32 м.
Вид битрейта : Постоянный
Битрейт : 448 Кбит/сек
Каналы : 6 каналов
Расположение каналов : Front: L C R, Side: L R, LFE
Частота : 48,0 КГц
Битовая глубина : 16 бит
Метод сжатия : С потерями
Размер потока : 296 Мбайт (20%)
Язык : Russian
Default : Да
Forced : Нет

Меню
00:00:00.000 : en:00:00:00.000
00:10:14.666 : en:00:10:14.666
00:16:31.666 : en:00:16:31.666
00:25:09.040 : en:00:25:09.040
00:33:00.958 : en:00:33:00.958
00:40:53.583 : en:00:40:53.583
00:48:46.500 : en:00:48:46.500
00:53:50.625 : en:00:53:50.625
01:05:48.291 : en:01:05:48.291
01:09:17.750 : en:01:09:17.750
01:22:44.875 : en:01:22:44.875
01:30:19.250 : en:01:30:19.250



Скачать Малютка.Чорвен.Боцман.и.Мозес.Tjorven.Batsman.och.Moses.(Улле.Хелльбум).[1964.семейный.BDRip-AVC].[MVO].torrent без регистрации
Золото ЗОЛОТАЯ РАЗДАЧА! СКАЧАННОЕ НЕ ЗАСЧИТЫВАЕТСЯ! Золото
Дата: Зарегистрирован   [ Тип: внешний ] Как тут cкачать?
MAGNET ссылка
MAGNET ссылка


Скачать .torrent

15 KB

Статус: проверено DHT
Скачан: торрент - 107 раз, раздача полностью - 14 раз
Размер: 1,46 GB
Оценка:  - (Голосов: 0)
Поблагодарили: 1
Поделиться ссылкой на эту раздачу с друзьями:
В контактеFacebookОдноклассникиTwitterLivejournalМой МирLiveinternet
 

 
Показать сообщения:    


Вы не можете начинать темы
Вы не можете отвечать на сообщения
Вы не можете редактировать свои сообщения
Вы не можете удалять свои сообщения
Вы не можете голосовать в опросах
Вы не можете прикреплять файлы к сообщениям
Вы можете скачивать файлы