Loading...
Error

Скачать Гусар на крыше / Le hussard sur le toit (Жан-Поль Раппено) [1995, драма, мелодрама, приключения, военный, BDRip-AVC] [MVO]+[Sub]x2 торрент без регистрации

 
Статистика раздачи
Размер:  1,45 GB   |    Скачан:  97 раз
Сидов:  1  [  0 KB/s  ]  
 
Автор Сообщение

Marsianka

[] 

Гусар на крыше / Le hussard sur le toit (1995) BDRip-AVC

Информация о фильме
Название: Гусар на крыше
Оригинальное название: Le hussard sur le toit
Год выхода: 1995
Жанр: драма, мелодрама, приключения, военный
Режиссер: Жан-Поль Раппено

В ролях: Жюльетт Бинош, Оливье Мартинес, Пьер Ардити, Франсуа Клюзе, Жан Янн, Клаудио Амендола, Изабель Карре, Карло Чекки, Жерар Депардьё, Кристиан Койенди...

О фильме: Действие приключенческой мелодрамы происходит в начале XIX века после падения Наполеона. 25-летний итальянский полковник, скрывающийся во Франции от австрийской тайной полиции, бежит от преследования убийц в самый разгар холеры.

Случай сводит его с молодой и красивой маркизой, которой он предлагает свою помощь, будучи юношей не только красивым, но и благородным. Вместе они переживают множество опасных и романтичных приключений на грани жизни и смерти, «помочь преодолеть которые сможет только любовь



Страна: Франция
Продолжительность: 02:09:18
Перевод: Профессиональный (многоголоссый закадровый)

Файл
Кодек: x.264
Качество: BDRip-AVC
Видео: 1024x432 (2,40:1), 23,976 fps, 1417 kbps, 0.134 bit/pixel
Звук: 48 kHz, AC3 Dolby Digital, 2 ch, ~192.00 kbps
Субтитры: Русские, Французкие (отключаемые)

&
Общее
Уникальный идентификатор : 185048550465812702849341921612135422939 (0x8B370DF07C18CE649CD0485D39C05BDB)
Полное имя : D:Le hussard sur le toit.1995.BDRip-AVC.mkv
Формат : Matroska
Версия формата : Version 2
Размер файла : 1,45 Гбайт
Продолжительность : 2 ч. 9 м.
Общий поток : 1611 Кбит/сек
Название фильма : Гусар на крыше / Le hussard sur le toit (1995) BDRip-AVC rip by Rulya74
Дата кодирования : UTC 2014-03-04 08:31:51
Программа кодирования : mkvmerge v4.9.1 ('Ich will') збрано Jul 11 2011 23:53:15
Библиотека кодирования : libebml v1.2.1 + libmatroska v1.1.1

Видео
Идентификатор : 1
Формат : AVC
Формат/Информация : Advanced Video Codec
Профиль формата : High@L4.1
Параметр CABAC формата : Да
Параметр ReFrames формата : 10 кадров
Идентификатор кодека : V_MPEG4/ISO/AVC
Продолжительность : 2 ч. 9 м.
Битрейт : 1417 Кбит/сек
Ширина : 1024 пикселя
Высота : 432 пикселя
Соотношение сторон : 2,40:1
Режим частоты кадров : Постоянный
Частота кадров : 23,976 кадра/сек
Цветовое пространство : YUV
Субдискретизация насыщенности : 4:2:0
Битовая глубина : 8 бит
Тип развёртки : Прогрессивная
Бит/(Пиксели*Кадры) : 0.134
Размер потока : 1,25 Гбайт (86%)
Библиотека кодирования : x264 core 138 r2358 9e941d1
Настройки программы : cabac=1 / ref=10 / deblock=1:-1:-1 / analyse=0x3:0x102 / me=umh / subme=11 / psy=1 / psy_rd=1.00:0.00 / mixed_ref=1 / me_range=48 / chroma_me=1 / trellis=2 / 8x8dct=1 / cqm=0 / deadzone=21,11 / fast_pskip=0 / chroma_qp_offset=-2 / threads=4 / lookahead_threads=1 / sliced_threads=0 / nr=0 / decimate=1 / interlaced=0 / bluray_compat=0 / constrained_intra=0 / bframes=9 / b_pyramid=2 / b_adapt=1 / b_bias=0 / direct=3 / weightb=1 / open_gop=0 / weightp=2 / keyint=240 / keyint_min=23 / scenecut=40 / intra_refresh=0 / rc_lookahead=40 / rc=2pass / mbtree=1 / bitrate=1417 / ratetol=1.0 / qcomp=0.60 / qpmin=0 / qpmax=69 / qpstep=4 / cplxblur=20.0 / qblur=0.5 / vbv_maxrate=62500 / vbv_bufsize=78125 / nal_hrd=none / ip_ratio=1.40 / aq=1:1.00
Default : Да
Forced : Нет

Аудио
Идентификатор : 2
Формат : AC-3
Формат/Информация : Audio Coding 3
Расширение режима : CM (complete main)
Параметр Endianness формата : Big
Идентификатор кодека : A_AC3
Продолжительность : 2 ч. 9 м.
Вид битрейта : Постоянный
Битрейт : 192 Кбит/сек
Каналы : 2 канала
Расположение каналов : Front: L R
Частота : 48,0 КГц
Битовая глубина : 16 бит
Метод сжатия : С потерями
Размер потока : 178 Мбайт (12%)
Заголовок : Профессиональный (многоголосый закадровый)
Язык : Russian
Default : Да
Forced : Нет

Текст #1
Идентификатор : 3
Формат : UTF-8
Идентификатор кодека : S_TEXT/UTF8
Идентификатор кодека/Информация : UTF-8 Plain Text
Язык : Russian
Default : Да
Forced : Нет

Текст #2
Идентификатор : 4
Формат : UTF-8
Идентификатор кодека : S_TEXT/UTF8
Идентификатор кодека/Информация : UTF-8 Plain Text
Язык : French
Default : Нет
Forced : Нет

Меню
00:00:00.000 : en:00:00:00.000
00:05:20.153 : en:00:05:20.153
00:07:06.551 : en:00:07:06.551
00:12:59.195 : en:00:12:59.195
00:21:55.606 : en:00:21:55.606
00:24:16.080 : en:00:24:16.080
00:29:33.355 : en:00:29:33.355
00:35:08.898 : en:00:35:08.898
00:39:45.300 : en:00:39:45.300
00:48:32.243 : en:00:48:32.243
00:55:26.907 : en:00:55:26.907
01:01:41.323 : en:01:01:41.323
01:03:30.473 : en:01:03:30.473
01:07:06.856 : en:01:07:06.856
01:11:37.835 : en:01:11:37.835
01:14:25.795 : en:01:14:25.795
01:16:26.332 : en:01:16:26.332
01:19:12.289 : en:01:19:12.289
01:26:27.391 : en:01:26:27.391
01:29:34.202 : en:01:29:34.202
01:31:57.887 : en:01:31:57.887
01:41:09.522 : en:01:41:09.522
01:44:39.523 : en:01:44:39.523
01:58:46.995 : en:01:58:46.995
02:02:34.097 : en:02:02:34.097



Скачать Гусар.на.крыше.Le.hussard.sur.le.toit.(Жан-Поль.Раппено).[1995.драма.мелодрама.приключения.военный.BDRip-AVC].[MVO]+[Sub]x2.torrent без регистрации
Золото ЗОЛОТАЯ РАЗДАЧА! СКАЧАННОЕ НЕ ЗАСЧИТЫВАЕТСЯ! Золото
Дата: Зарегистрирован   [ Тип: внутренний ] Как тут cкачать?
MAGNET ссылка
MAGNET ссылка


Скачать .torrent

15 KB

Статус: проверено DHT
Скачан: торрент - 97 раз, раздача полностью - 3 раз
Размер: 1,45 GB
Оценка:  - (Голосов: 0)
Поблагодарили: 2
Поделиться ссылкой на эту раздачу с друзьями:
В контактеFacebookОдноклассникиTwitterLivejournalМой МирLiveinternet
 

 
Показать сообщения:    


Вы не можете начинать темы
Вы не можете отвечать на сообщения
Вы не можете редактировать свои сообщения
Вы не можете удалять свои сообщения
Вы не можете голосовать в опросах
Вы не можете прикреплять файлы к сообщениям
Вы можете скачивать файлы