Loading...
Error

Скачать Проказник Макс / Good Time Max (Джеймс Франко) [2007, драма, BDRip-AVC] [DVO]+[Sub]x2 торрент без регистрации

 
Статистика раздачи
Размер:  1,89 GB   |    Скачан:  109 раз
Сидов:  1  [  0 KB/s  ]  
 
Автор Сообщение

Marsianka

[] 

Информация о фильме
Название: Проказник Макс
Оригинальное название: Good Time Max
Год выхода: 2007
Жанр: драма
Режиссер: Джеймс Франко
В ролях: Джеймс Франко, Винс Джоливетт, Уилмер Калдерон, Трип Хоуп, Ричард Портноу, Джаррод Банч, Робин Коэн, Питер Маккензи, Брайан Лэлли, Чарити Ши, Молли Чик, Мэри Пэйн, Марк Гапка, Бэйли Хьюз, Тайлор Чейз, Мэдалин Лестер, Рут Барри, Блейн Миллер, Джек Самет

О фильме: Два брата Адам и Макс Вербински похожи, но очень разные. Оба очень умные, но если Адам всё получает трудом и терпением, Макс выходит сухим из воды только благодаря своему везению и шарму. Внезапно Макс попадает в неприятности и просит своего брата взять его в командировку с собой, тот соглашается с уговором, что Макс не будет создавать неприятностей и употреблять наркотики. Но на новом месте Макс неспособен долго оставаться спокойным, он опять создает проблемы себе и брату, что приводит к их ссоре



Страна: США
Студия: RabbitBandini Productions
Продолжительность: 01:18:47
Перевод: Профессиональный двухголосый
Файл
Кодек: MPEG-4 AVC
Качество: BDRip-AVC
Видео: 2800 Кбит/с, 1024x438, 23.976 кадр/с
Звук:
Аудио #1: Русский (AC3, 2 ch, 192 Кбит/с) / Профессиональный двухголосый (1ТВЧ)
Аудио #2: Английский (AC3, 6 ch, 448 Кбит/с)
Субтитры: Русские, английские
Семпл
Общее
Уникальный идентификатор : 223018751387890526296519829773955117789 (0xA7C7D9619E26AD2CBA1150C006A432DD)
Полное имя : D:Мои РипыProkaznik.Maks.2007.x264.BDRip.AVC.MediaClub.mkv
Формат : Matroska
Версия формата : Version 4 / Version 2
Размер файла : 1,89 Гбайт
Продолжительность : 1 ч. 18 м.
Общий поток : 3440 Кбит/сек
Название фильма : = MediaClub = rip by krakatuq
Дата кодирования : UTC 2014-03-04 08:29:04
Программа кодирования : mkvmerge v6.6.0 ('The Edge Of The In Between') built on Dec 1 2013 17:55:00
Библиотека кодирования : libebml v1.3.0 + libmatroska v1.4.1

Видео
Идентификатор : 1
Формат : AVC
Формат/Информация : Advanced Video Codec
Профиль формата : High@L4.1
Параметр CABAC формата : Да
Параметр ReFrames формата : 9 кадров
Идентификатор кодека : V_MPEG4/ISO/AVC
Продолжительность : 1 ч. 18 м.
Битрейт : 2800 Кбит/сек
Ширина : 1024 пикселя
Высота : 438 пикселей
Соотношение сторон : 2,35:1
Режим частоты кадров : Постоянный
Частота кадров : 23,976 кадра/сек
Цветовое пространство : YUV
Субдискретизация насыщенности : 4:2:0
Битовая глубина : 8 бит
Тип развёртки : Прогрессивная
Бит/(Пиксели*Кадры) : 0.260
Размер потока : 1,50 Гбайт (79%)
Заголовок : Prokaznik.Maks.2007.x264.BDRip.AVC.MediaClub
Библиотека кодирования : x264 core 130 r2273 b3065e6
Настройки программы : cabac=1 / ref=9 / deblock=1:-3:-3 / analyse=0x3:0x133 / me=umh / subme=11 / psy=1 / psy_rd=1.00:0.25 / mixed_ref=1 / me_range=32 / chroma_me=1 / trellis=2 / 8x8dct=1 / cqm=0 / deadzone=21,11 / fast_pskip=0 / chroma_qp_offset=-4 / threads=3 / lookahead_threads=1 / sliced_threads=0 / nr=0 / decimate=0 / interlaced=0 / bluray_compat=0 / constrained_intra=0 / bframes=8 / b_pyramid=2 / b_adapt=2 / b_bias=0 / direct=3 / weightb=1 / open_gop=0 / weightp=2 / keyint=240 / keyint_min=23 / scenecut=40 / intra_refresh=0 / rc=2pass / mbtree=0 / bitrate=2800 / ratetol=1.0 / qcomp=0.60 / qpmin=0 / qpmax=69 / qpstep=4 / cplxblur=20.0 / qblur=0.5 / ip_ratio=1.40 / pb_ratio=1.30 / aq=1:1.00
Язык : English
Default : Да
Forced : Нет

Аудио #1
Идентификатор : 2
Формат : AC-3
Формат/Информация : Audio Coding 3
Расширение режима : CM (complete main)
Параметр Endianness формата : Big
Идентификатор кодека : A_AC3
Продолжительность : 1 ч. 18 м.
Вид битрейта : Постоянный
Битрейт : 192 Кбит/сек
Каналы : 2 канала
Расположение каналов : Front: L R
Частота : 48,0 КГц
Битовая глубина : 16 бит
Метод сжатия : С потерями
Размер потока : 108 Мбайт (6%)
Заголовок : TRACK_01_DVO_RUS
Язык : Russian
Default : Да
Forced : Да

Аудио #2
Идентификатор : 3
Формат : AC-3
Формат/Информация : Audio Coding 3
Расширение режима : CM (complete main)
Параметр Endianness формата : Big
Идентификатор кодека : A_AC3
Продолжительность : 1 ч. 18 м.
Вид битрейта : Постоянный
Битрейт : 448 Кбит/сек
Каналы : 6 каналов
Расположение каналов : Front: L C R, Side: L R, LFE
Частота : 48,0 КГц
Битовая глубина : 16 бит
Метод сжатия : С потерями
Размер потока : 252 Мбайт (13%)
Заголовок : TRACK_02_ORIGINAL_ENG
Язык : English
Default : Нет
Forced : Нет

Текст #1
Идентификатор : 4
Формат : UTF-8
Идентификатор кодека : S_TEXT/UTF8
Идентификатор кодека/Информация : UTF-8 Plain Text
Заголовок : Text_01_SUB_RUS
Язык : Russian
Default : Нет
Forced : Нет

Текст #2
Идентификатор : 5
Формат : UTF-8
Идентификатор кодека : S_TEXT/UTF8
Идентификатор кодека/Информация : UTF-8 Plain Text
Заголовок : Text_02_SUB_ENG
Язык : English
Default : Нет
Forced : Нет

Меню
00:00:00.000 : en:00:00:00.000
00:06:42.819 : en:00:06:42.819
00:14:35.124 : en:00:14:35.124
00:21:21.071 : en:00:21:21.071
00:26:05.355 : en:00:26:05.355
00:32:29.739 : en:00:32:29.739
00:38:59.963 : en:00:38:59.963
00:45:20.384 : en:00:45:20.384
00:52:33.609 : en:00:52:33.609
00:58:45.272 : en:00:58:45.272
01:05:13.743 : en:01:05:13.743
01:12:00.566 : en:01:12:00.566
x264 [info]: frame I:898PP Avg QP:17.00PPsize: 60472
x264 [info]: frame P:28975 Avg QP:19.59PPsize: 24829
x264 [info]: frame B:83449 Avg QP:21.54PPsize: 10535
Релиз от:

Автор рипа:



Скачать Проказник.Макс.Good.Time.Max.(Джеймс.Франко).[2007.драма.BDRip-AVC].[DVO]+[Sub]x2.torrent без регистрации
Золото ЗОЛОТАЯ РАЗДАЧА! СКАЧАННОЕ НЕ ЗАСЧИТЫВАЕТСЯ! Золото
Дата: Зарегистрирован   [ Тип: внутренний ] Как тут cкачать?
MAGNET ссылка
MAGNET ссылка


Скачать .torrent

20 KB

Статус: проверено DHT
Скачан: торрент - 109 раз, раздача полностью - 1 раз
Размер: 1,89 GB
Оценка:  - (Голосов: 0)
Поблагодарили: 2
Поделиться ссылкой на эту раздачу с друзьями:
В контактеFacebookОдноклассникиTwitterLivejournalМой МирLiveinternet
 

 
Показать сообщения:    


Вы не можете начинать темы
Вы не можете отвечать на сообщения
Вы не можете редактировать свои сообщения
Вы не можете удалять свои сообщения
Вы не можете голосовать в опросах
Вы не можете прикреплять файлы к сообщениям
Вы можете скачивать файлы