Loading...
Error

Скачать Государственная тайна / Secret State (Полный 1-ый сезон) (Эд Фрэйман) [2012, триллер, HDTVRip] [MVO] (Jaskier) торрент без регистрации

 
Статистика раздачи
Размер:  1,96 GB   |    Скачан:  101 раз
Сидов:  1  [  0 KB/s  ]  
 
Автор Сообщение

leon030982

[] 

Государственная тайна / Secret State

Год выпуска: 2012
Страна: Великобритания
Жанр: триллер
Продолжительность: ~00:43:00
Перевод: Профессиональный (многоголосый, закадровый) [студия Jaskier]
Русские субтитры: нет
Режиссёр: Эд Фрэйман

В ролях: Гэбриел Бирн, Ралф Айнесон, Чарльз Дэнс, Джейми Сивес, Джина МакКи, Сильвестра Ле Тузель, Руперт Грейвз, Лия Уильямс, Анна Маделей, Рут Негга
Описание: Сюжет завязан на расследовании причин сокрушительного несчастного случая, произошедшего на одном из нефтехимических заводов, которым владеют американцы.



Качество: HDTVRip
Формат: AVI
Видео кодек: XviD
Аудио кодек: AC3
Видео: XviD; 720x304 (2,35:1); ~1200 Kbps; 25,000 fps; ~0,227 bpp
Аудио 1: AC3; 192 Kbps; 48 kHz; 2 ch [Jaskier]
Аудио 2: AC3; 192 Kbps; 48 kHz; 2 ch [оригинал]
Перевод: Doctor Joker и MartinaG
Роли озвучивали: Денис Строев, Вячеслав Козлов, Сергей Пономарёв и Рина Гришина
General
Complete name : D:\Видео\Cериалы\Secret State\Secret State S01 Jaskier\Secret.State.s01e01.HDTVRip.rus.eng.Jaskier.avi
Format : AVI
Format/Info : Audio Video Interleave
File size : 501 MiB
Duration : 42mn 41s
Overall bit rate : 1 639 Kbps
Writing application : VirtualDubMod 1.5.10.3 | www.virtualdub-fr.org || (build 2550/release)
Writing library : VirtualDubMod build 2550/release
Video
ID : 0
Format : MPEG-4 Visual
Format profile : Advanced Simple@L5
Format settings, BVOP : 2
Format settings, QPel : No
Format settings, GMC : No warppoints
Format settings, Matrix : Default (MPEG)
Codec ID : XVID
Codec ID/Hint : XviD
Duration : 42mn 41s
Bit rate : 1 241 Kbps
Width : 720 pixels
Height : 304 pixels
Display aspect ratio : 2.35:1
Frame rate : 25.000 fps
Color space : YUV
Chroma subsampling : 4:2:0
Bit depth : 8 bits
Scan type : Progressive
Compression mode : Lossy
Bits/(Pixel*Frame) : 0.227
Stream size : 379 MiB (76%)
Writing library : XviD 1.2.1 (UTC 2008-12-04)
Audio #1
ID : 1
Format : AC-3
Format/Info : Audio Coding 3
Mode extension : CM (complete main)
Format settings, Endianness : Big
Codec ID : 2000
Duration : 42mn 41s
Bit rate mode : Constant
Bit rate : 192 Kbps
Channel(s) : 2 channels
Channel positions : Front: L R
Sampling rate : 48.0 KHz
Bit depth : 16 bits
Compression mode : Lossy
Stream size : 58.6 MiB (12%)
Alignment : Split accross interleaves
Interleave, duration : 40 ms (1.00 video frame)
Interleave, preload duration : 500 ms
Audio #2
ID : 2
Format : AC-3
Format/Info : Audio Coding 3
Mode extension : CM (complete main)
Format settings, Endianness : Big
Codec ID : 2000
Duration : 42mn 41s
Bit rate mode : Constant
Bit rate : 192 Kbps
Channel(s) : 2 channels
Channel positions : Front: L R
Sampling rate : 48.0 KHz
Bit depth : 16 bits
Compression mode : Lossy
Stream size : 58.6 MiB (12%)
Alignment : Split accross interleaves
Interleave, duration : 40 ms (1.00 video frame)
Interleave, preload duration : 500 ms



Скачать Государственная.тайна.Secret.State.(Полный.1-ый.сезон).(Эд.Фрэйман).[2012.триллер.HDTVRip].[MVO].(Jaskier).torrent без регистрации
Золото ЗОЛОТАЯ РАЗДАЧА! СКАЧАННОЕ НЕ ЗАСЧИТЫВАЕТСЯ! Золото
Дата: Зарегистрирован   [ Тип: внутренний ] Как тут cкачать?
MAGNET ссылка
MAGNET ссылка


Скачать .torrent

20 KB

Статус: проверено DHT
Скачан: торрент - 101 раз, раздача полностью - 9 раз
Размер: 1,96 GB
Оценка:  5 (Голосов: 1)
Поблагодарили: 1
Поделиться ссылкой на эту раздачу с друзьями:
В контактеFacebookОдноклассникиTwitterLivejournalМой МирLiveinternet
 

 
Показать сообщения:    


Вы не можете начинать темы
Вы не можете отвечать на сообщения
Вы не можете редактировать свои сообщения
Вы не можете удалять свои сообщения
Вы не можете голосовать в опросах
Вы не можете прикреплять файлы к сообщениям
Вы можете скачивать файлы