Loading...
Error

Скачать Голод / The Hunger (Тони Скотт) [1983, ужасы, триллер, драма, мелодрама, WEB-DL] [720p] [MVO]+[AVO]+[Оригинал]+[Sub]x2 торрент без регистрации

 
Статистика раздачи
Размер:  3,17 GB   |    Скачан:  99 раз
Сидов:  1  [  0 KB/s  ]  
 
Автор Сообщение

Marsianka

[] 

Информация о фильме
Название: Голод
Оригинальное название: The Hunger
Год выхода: 1983
Жанр: ужасы, триллер, драма, мелодрама
Режиссер: Тони Скотт
В ролях: Катрин Денёв Мириам Блэйлок, Дэвид Боуи Джон, Сьюзен Сарандон доктор Сара Робертс, Клифф Де Янг Том Хавр, Бет Элерс Элис Кавендер, Дэн Хедайя лейтенант Оллегрезза.

О фильме:
Катрин Денев играет холодную и прекрасную вампиршу Мириэм, которая блуждает в потемках модных ночных клубов Манхэттена в поисках свежей крови. Боуи исполняет роль Джона, ее двухсотлетнего партнера, с которым бессмертная героиня делит не только свою тайную жизнь, но и тайные страсти!

Когда ее верный напарник Джон внезапно начинает необъяснимым образом стареть, к нему на помощь является обворожительная женщина-ученый, которая становится частью ужасного треугольника, сотканного из желания, секса и крови.



Страна: Великобритания
Студия: MGM, Peerford Ltd.
Продолжительность: 01:36:32
Перевод: Профессиональный многоголосый, Авторский одноголосый, Оригинал

Файл
Качество: WEB-DL 720p
Видео: 1280x534 (2,40:1), 23.976 fps, MPEG-4 AVC, 4033 Kbps
Звук:
Аудио #1: AC3, 192 Kbps, 48.0 KHz, 2 ch (Rus) Многоголосый закадровый
Аудио #2: AC3, 192 Kbps, 48.0 KHz, 2 ch (Rus) Авторский одноголосый, А.Михалёв
Аудио #3: AC3, 192 Kbps, 48.0 KHz, 2 ch (Eng) Оригинал
Субтитры: Русские, Английские
Формат : Matroska
Версия формата : Version 2
Размер файла : 3,17 Гбайт
Продолжительность : 1 ч. 36 м.
Общий поток : 4702 Кбит/сек
Дата кодирования : UTC 2014-03-04 14:57:39
Программа кодирования : mkvmerge v5.4.0 ('Piper') built on Mar 10 2012 13:34:39
Библиотека кодирования : libebml v1.2.3 + libmatroska v1.3.0

Видео
Идентификатор : 1
Формат : AVC
Формат/Информация : Advanced Video Codec
Профиль формата : Main@L3.1
Параметр CABAC формата : Нет
Параметр ReFrames формата : 2 кадра
Идентификатор кодека : V_MPEG4/ISO/AVC
Продолжительность : 1 ч. 36 м.
Битрейт : 4033 Кбит/сек
Ширина : 1280 пикселей
Высота : 534 пикселя
Соотношение сторон : 2,40:1
Режим частоты кадров : Постоянный
Частота кадров : 23,976 кадра/сек
Цветовое пространство : YUV
Субдискретизация насыщенности : 4:2:0
Битовая глубина : 8 бит
Тип развёртки : Прогрессивная
Бит/(Пиксели*Кадры) : 0.246
Размер потока : 2,72 Гбайт (86%)
Заголовок : The Hunger / Голод (1983)
Язык : English
Default : Да
Forced : Нет
Основные цвета : BT.709
Характеристики трансфера : BT.709
Коэффициенты матрицы : BT.709

Аудио #1
Идентификатор : 2
Формат : AC-3
Формат/Информация : Audio Coding 3
Расширение режима : CM (complete main)
Параметр Endianness формата : Big
Идентификатор кодека : A_AC3
Продолжительность : 1 ч. 36 м.
Вид битрейта : Постоянный
Битрейт : 192 Кбит/сек
Каналы : 2 канала
Расположение каналов : Front: L R
Частота : 48,0 КГц
Битовая глубина : 16 бит
Метод сжатия : С потерями
Размер потока : 133 Мбайт (4%)
Заголовок : MVO (Russian)
Язык : Russian
Default : Да
Forced : Нет

Аудио #2
Идентификатор : 3
Формат : AC-3
Формат/Информация : Audio Coding 3
Расширение режима : CM (complete main)
Параметр Endianness формата : Big
Идентификатор кодека : A_AC3
Продолжительность : 1 ч. 36 м.
Вид битрейта : Постоянный
Битрейт : 192 Кбит/сек
Каналы : 2 канала
Расположение каналов : Front: L R
Частота : 48,0 КГц
Битовая глубина : 16 бит
Метод сжатия : С потерями
Размер потока : 133 Мбайт (4%)
Заголовок : AVO (А.Михалёв)
Язык : Russian
Default : Нет
Forced : Нет

Аудио #3
Идентификатор : 4
Формат : AC-3
Формат/Информация : Audio Coding 3
Расширение режима : CM (complete main)
Параметр Endianness формата : Big
Идентификатор кодека : A_AC3
Продолжительность : 1 ч. 36 м.
Вид битрейта : Постоянный
Битрейт : 192 Кбит/сек
Каналы : 2 канала
Расположение каналов : Front: L R
Частота : 48,0 КГц
Битовая глубина : 16 бит
Метод сжатия : С потерями
Размер потока : 133 Мбайт (4%)
Заголовок : Original (English)
Язык : English
Default : Нет
Forced : Нет

Текст #1
Идентификатор : 5
Формат : UTF-8
Идентификатор кодека : S_TEXT/UTF8
Идентификатор кодека/Информация : UTF-8 Plain Text
Заголовок : Rus
Язык : Russian
Default : Нет
Forced : Нет

Текст #2
Идентификатор : 6
Формат : UTF-8
Идентификатор кодека : S_TEXT/UTF8
Идентификатор кодека/Информация : UTF-8 Plain Text
Заголовок : Eng
Язык : English
Default : Нет
Forced : Нет

Меню
00:00:00.000 : en:1
00:03:10.000 : en:2
00:06:30.000 : en:3
00:12:29.000 : en:4
00:16:21.000 : en:5
00:21:10.000 : en:6
00:27:52.000 : en:7
00:32:26.000 : en:8
00:38:40.000 : en:9
00:44:50.000 : en:10
00:48:24.000 : en:11
00:52:23.000 : en:12
00:56:13.000 : en:13
01:00:05.000 : en:14
01:03:30.000 : en:15
01:08:30.000 : en:16
01:10:42.000 : en:17
01:13:54.000 : en:18
01:16:47.000 : en:19
01:21:12.000 : en:20
01:24:44.000 : en:21
01:29:48.000 : en:22
01:33:14.000 : en:23



Скачать Голод.The.Hunger.(Тони.Скотт).[1983.ужасы.триллер.драма.мелодрама.WEB-DL].[720p].[MVO]+[AVO]+[Оригинал]+[Sub]x2.torrent без регистрации
Золото ЗОЛОТАЯ РАЗДАЧА! СКАЧАННОЕ НЕ ЗАСЧИТЫВАЕТСЯ! Золото
Дата: Зарегистрирован   [ Тип: внутренний ] Как тут cкачать?
MAGNET ссылка
MAGNET ссылка


Скачать .torrent

16 KB

Статус: проверено DHT
Скачан: торрент - 99 раз, раздача полностью - 37 раз
Размер: 3,17 GB
Оценка:  - (Голосов: 0)
Поблагодарили: 1
Поделиться ссылкой на эту раздачу с друзьями:
В контактеFacebookОдноклассникиTwitterLivejournalМой МирLiveinternet
 

 
Показать сообщения:    


Вы не можете начинать темы
Вы не можете отвечать на сообщения
Вы не можете редактировать свои сообщения
Вы не можете удалять свои сообщения
Вы не можете голосовать в опросах
Вы не можете прикреплять файлы к сообщениям
Вы можете скачивать файлы