Loading...
Error

Скачать Целуя девушек / Kiss the Girls (Гари Фледер) [1997, триллер, драма, криминал, детектив, BDRip-AVC] [MVO]x2+[DVO]x2+[AVO]x3+[Sub]x2 торрент без регистрации

 
Статистика раздачи
Размер:  3,74 GB   |    Скачан:  120 раз
Сидов:  1  [  0 KB/s  ]  
 
Автор Сообщение

Marsianka

[] 

Информация о фильме
Название: Целуя девушек
Оригинальное название: Kiss the Girls
Год выхода: 1997
Жанр: триллер, драма, криминал, детектив
Режиссер: Гари Фледер
В ролях: Морган Фримен, Эшли Джадд, Кэри Элвис, Алекс МакАртур, Тони Голдуин, Джей О. Сэндерс, Билл Нанн, Брайан Кокс, Ричард Т. Джонс, Рома Маффиа, Джереми Пивен, Джина Равер, Хелен Мартин, Татьяна Али, Мена Сувари, Хайди Шанц, Билли Блэнкс

О фильме:
Похищено восемь молодых красивых и талантливых женщин. Все они могут погибнуть, если полицейский Алекс Кросс и свидетельница Кейт Мактайернан не смогут обнаружить логово неуловимого маньяка, который называет себя Казанова. От городков Дальнего Юга до побережья Калифорнии разворачивается охота. Энергичной свидетельнице Мактайрнан единственной удалось вырваться из лап Казановы, и теперь ее цель освободить оставшуюся в секретном логове подругу.



Страна: США
Студия: Paramount Pictures, Rysher Entertainment
Продолжительность: 01:55:36
Перевод: Профессиональный многоголосый, профессиональный двухголосый, авторский одноголосый

Файл
Кодек: h.264
Качество: BDRip-AVC
Видео: 2130 Кбит/с, 1024x436, 23.976 кадр/с
1: Русский (AC3, 6 ch, 384 Кбит/с) Профессиональный многоголосый [iTunes]
2: Русский (AC3, 6 ch, 384 Кбит/с) Авторский одноголосый [Андрей Гаврилов]
3: Английский (АС3, 6 ch, 384 Кбит/с)
Отдельно:
4: Русский (AC3, 2 ch, 192 Кбит/с) Профессиональный многоголосый [ТНТ]
5: Русский (AC3, 6 ch, 384 Кбит/с) Профессиональный двухголосый
6: Русский (AC3, 6 ch, 384 Кбит/с) Профессиональный двухголосый [НТВ+]
7: Русский (AC3, 2 ch, 192 Кбит/с) Авторский одноголосый [Юрий Живов]
8: Русский (AC3, 2 ch, 192 Кбит/с) Авторский одноголосый [Александр Кашкин (Первомайский)]

Субтитры: Русские, английские

---------------------------------------------------------------------------
x264 [info]: frame I:1271 Avg QP:14.91 size: 62999
x264 [info]: frame P:37212 Avg QP:17.93 size: 22588
x264 [info]: frame B:127828 Avg QP:19.62 size: 7248
---------------------------------------------------------------------------

Полное имя : F:Kiss.the.Girls.1997.x264.BDRip-AVC.0ptimusKiss.the.Girls.1997.x264.BDRip-AVC.0ptimus.mkv
Формат : Matroska
Версия формата : Version 2
Размер файла : 2,65 Гбайт
Продолжительность : 1 ч. 55 м.
Общий поток : 3285 Кбит/сек
Название фильма : Целуя девушек | Kiss the Girls [1997] -= BDRip (AVC) by 0ptimus =-
Дата кодирования : UTC 2014-03-05 05:56:59
Программа кодирования : mkvmerge v6.6.0 ('The Edge Of The In Between') built on Dec 1 2013 17:55:00
Библиотека кодирования : libebml v1.3.0 + libmatroska v1.4.1

Видео
Идентификатор : 1
Формат : AVC
Формат/Информация : Advanced Video Codec
Профиль формата : High@L4.1
Параметр CABAC формата : Да
Параметр ReFrames формата : 9 кадров
Идентификатор кодека : V_MPEG4/ISO/AVC
Продолжительность : 1 ч. 55 м.
Битрейт : 2130 Кбит/сек
Ширина : 1024 пикселя
Высота : 436 пикселей
Соотношение сторон : 2,35:1
Режим частоты кадров : Постоянный
Частота кадров : 23,976 кадра/сек
Цветовое пространство : YUV
Субдискретизация насыщенности : 4:2:0
Битовая глубина : 8 бит
Тип развёртки : Прогрессивная
Бит/(Пиксели*Кадры) : 0.199
Размер потока : 1,67 Гбайт (63%)
Заголовок : Rip by 0ptimus
Библиотека кодирования : x264 core 133 r2334 a3ac64b
Настройки программы : cabac=1 / ref=9 / deblock=1:-3:-3 / analyse=0x3:0x113 / me=umh / subme=11 / psy=1 / psy_rd=1.00:0.20 / mixed_ref=1 / me_range=48 / chroma_me=1 / trellis=2 / 8x8dct=1 / cqm=0 / deadzone=21,11 / fast_pskip=0 / chroma_qp_offset=-3 / threads=4 / lookahead_threads=1 / sliced_threads=0 / nr=0 / decimate=0 / interlaced=0 / bluray_compat=0 / constrained_intra=0 / bframes=11 / b_pyramid=2 / b_adapt=2 / b_bias=0 / direct=3 / weightb=1 / open_gop=0 / weightp=2 / keyint=240 / keyint_min=23 / scenecut=40 / intra_refresh=0 / rc_lookahead=40 / rc=2pass / mbtree=0 / bitrate=2130 / ratetol=1.0 / qcomp=0.60 / qpmin=0 / qpmax=69 / qpstep=4 / cplxblur=20.0 / qblur=0.5 / vbv_maxrate=50000 / vbv_bufsize=50000 / nal_hrd=none / ip_ratio=1.40 / pb_ratio=1.30 / aq=1:1.00
Язык : English
Default : Да
Forced : Да

Аудио #1
Идентификатор : 2
Формат : AC-3
Формат/Информация : Audio Coding 3
Расширение режима : CM (complete main)
Параметр Endianness формата : Big
Идентификатор кодека : A_AC3
Продолжительность : 1 ч. 55 м.
Вид битрейта : Постоянный
Битрейт : 384 Кбит/сек
Каналы : 6 каналов
Расположение каналов : Front: L C R, Side: L R, LFE
Частота : 48,0 КГц
Битовая глубина : 16 бит
Метод сжатия : С потерями
Размер потока : 318 Мбайт (12%)
Заголовок : Многоголосый закадровый [iTunes] AC3 5.1 @ AC3 384 kbps
Язык : Russian
Default : Да
Forced : Да

Аудио #2
Идентификатор : 3
Формат : AC-3
Формат/Информация : Audio Coding 3
Расширение режима : CM (complete main)
Параметр Endianness формата : Big
Идентификатор кодека : A_AC3
Продолжительность : 1 ч. 55 м.
Вид битрейта : Постоянный
Битрейт : 384 Кбит/сек
Каналы : 6 каналов
Расположение каналов : Front: L C R, Side: L R, LFE
Частота : 48,0 КГц
Битовая глубина : 16 бит
Метод сжатия : С потерями
Размер потока : 318 Мбайт (12%)
Заголовок : Авторский [Андрей Гаврилов] AC3 5.1 @ AC3 384 kbps
Язык : Russian
Default : Нет
Forced : Нет

Аудио #3
Идентификатор : 4
Формат : AC-3
Формат/Информация : Audio Coding 3
Расширение режима : CM (complete main)
Параметр Endianness формата : Big
Идентификатор кодека : A_AC3
Продолжительность : 1 ч. 55 м.
Вид битрейта : Постоянный
Битрейт : 384 Кбит/сек
Каналы : 6 каналов
Расположение каналов : Front: L C R, Side: L R, LFE
Частота : 48,0 КГц
Битовая глубина : 16 бит
Метод сжатия : С потерями
Размер потока : 318 Мбайт (12%)
Заголовок : AC3 5.1 @ AC3 384 kbps
Язык : English
Default : Нет
Forced : Нет

Текст #1
Идентификатор : 5
Формат : UTF-8
Идентификатор кодека : S_TEXT/UTF8
Идентификатор кодека/Информация : UTF-8 Plain Text
Язык : Russian
Default : Нет
Forced : Нет

Текст #2
Идентификатор : 6
Формат : UTF-8
Идентификатор кодека : S_TEXT/UTF8
Идентификатор кодека/Информация : UTF-8 Plain Text
Язык : English
Default : Нет
Forced : Нет

Меню
00:00:00.000 : :First Love
00:02:31.151 : :I'm a Forensic Psychologist
00:07:45.715 : :Naomi's Missing
00:10:00.225 : :Megan
00:11:13.756 : :The Research Triangle
00:19:16.530 : :Dr. Mctiernan
00:23:37.875 : :This Guy's A Collector
00:24:59.873 : :Casanova Declares Himself
00:29:10.207 : :Not a Clue
00:32:42.752 : :The Lair
00:36:04.329 : :Dr. Sachs
00:38:06.367 : :Never Call Out
00:40:59.957 : :The Odalisque
00:43:34.320 : :Escape
00:48:11.097 : :Kate Recovers
00:53:24.827 : :Blame Me
00:55:58.438 : :Hypnosis Session
00:59:20.766 : :Take Me with You
01:02:31.706 : :Rudolph
01:07:51.651 : :Blending In
01:11:04.635 : :Gone in the Night
01:15:28.858 : :The Shrine
01:18:48.891 : :Dr. Sachs Revisited
01:25:22.826 : :Closing In
01:36:29.867 : :Saved
01:39:23.791 : :Tell Me What Truth Is
01:55:36.000 : :End
Релиз от:



Скачать Целуя.девушек.Kiss.the.Girls.(Гари.Фледер).[1997.триллер.драма.криминал.детектив.BDRip-AVC].[MVO]x2+[DVO]x2+[AVO]x3+[Sub]x2.torrent без регистрации
Золото ЗОЛОТАЯ РАЗДАЧА! СКАЧАННОЕ НЕ ЗАСЧИТЫВАЕТСЯ! Золото
Дата: Зарегистрирован   [ Тип: внутренний ] Как тут cкачать?
MAGNET ссылка
MAGNET ссылка


Скачать .torrent

39 KB

Статус: проверено DHT
Скачан: торрент - 120 раз, раздача полностью - 47 раз
Размер: 3,74 GB
Оценка:  - (Голосов: 0)
Поблагодарили: 3
Поделиться ссылкой на эту раздачу с друзьями:
В контактеFacebookОдноклассникиTwitterLivejournalМой МирLiveinternet
 

 
Показать сообщения:    


Вы не можете начинать темы
Вы не можете отвечать на сообщения
Вы не можете редактировать свои сообщения
Вы не можете удалять свои сообщения
Вы не можете голосовать в опросах
Вы не можете прикреплять файлы к сообщениям
Вы можете скачивать файлы