Loading...
Error

Скачать Как я встретил вашу маму / How I Met Your Mother (09x01-19) (Памела Фрайман, Роб Гринберг) [2013, комедия, мелодрама, WEB-DL] [Sub] торрент без регистрации

 
Статистика раздачи
Размер:  12,85 GB   |    Скачан:  3055 раз
Сидов:  1  [  0 KB/s  ]  
 
Автор Сообщение

МихаНЕзатор

[] 

Как Я Встретил Вашу Маму / How I Met Your Mother


Год выпуска: 2013
Страна: США
Жанр: комедия, мелодрама
Продолжительность: 00:22:00
Перевод: Субтитры (redant @ Notabenoid)
Режиссёр: Памела Фрайман, Роб Гринберг, Майкл Ши

В ролях: Джош Рэднор, Джейсон Сегел, Коби Смалдерс, Нил Патрик Хэррис, Эллисон Хэнниган

b]Описание[/b]: Как я встретил вашу маму комедия про Теда и про то, как он влюбился. Все неприятности начинаются с того, что лучший друг Теда, Маршалл вдруг неожиданно сообщил, что он хочет сделать предложение своей давней подруге, Лили, воспитательнице детского сада. К тому времени Тед понимает, что ему нужно прилагать больше усилий, если он действительно надеется найти свою настоящую любовь. Помогает ему в этих поисках его друг Барни, убежденный холостяк, вечно со своим, иногда чересчур, мнением на все происходящее, со склонностью к костюмам и верным способом познакомиться с девушками. Когда Тед встречает Робин, он решает, что это любовь с первого взгляда, но у судьбы в запасе есть кое-что еще.



Качество: WEB-DL 720p
Контейнер: MKV
Видео: H.264, 1280x718 (16:9), 23.976 fps, 3900 kbps, 0.18 bit/pixel
Аудио: AC3, 48 kHz, 6 channels, 384 kbps, 16 bits
Субтитры: softsub (ASS) русские (redant) + встроенные английские

01. The Locket
02. Coming Back
03. Last Time in New York
04. The Broken Code
05. The Poker Game
06. Knight Vision
07. No Questions Asked
08. The Lighthouse
09. Platonish
10. Mom and Dad
11. Bedtime Stories

General
Unique ID : 208777855763319551914129012516370507401 (0x9D11270499D253848D2063D9DE3FE689)
Complete name : D:How I Met Your Mother [season 9] [HDTV]How.I.Met.Your.Mother.S09E02.Coming.Back.720p.WEB-DL.DD5.1.H.264-YFN.mkv
Format : Matroska
Format version : Version 2
File size : 647 MiB
Duration : 20mn 55s
Overall bit rate : 4 322 Kbps
Encoded date : UTC 2013-09-25 17:27:35
Writing application : mkvmerge v2.9.7 ('Tenderness') built on Jul 1 2009 18:43:35
Writing library : libebml v0.7.7 + libmatroska v0.8.1

Video
ID : 1
Format : AVC
Format/Info : Advanced Video Codec
Format profile : High@L3.1
Format settings, CABAC : No
Format settings, ReFrames : 2 frames
Codec ID : V_MPEG4/ISO/AVC
Duration : 20mn 55s
Bit rate : 3 852 Kbps
Width : 1 280 pixels
Height : 718 pixels
Display aspect ratio : 16:9
Frame rate : 23.976 fps
Color space : YUV
Chroma subsampling : 4:2:0
Bit depth : 8 bits
Scan type : Progressive
Bits/(Pixel*Frame) : 0.175
Stream size : 576 MiB (89%)
Title : H.264
Default : Yes
Forced : No
Color primaries : BT.709-5, BT.1361, IEC 61966-2-4, SMPTE RP177
Transfer characteristics : BT.709-5, BT.1361
Matrix coefficients : BT.709-5, BT.1361, IEC 61966-2-4 709, SMPTE RP177

Audio
ID : 2
Format : AC-3
Format/Info : Audio Coding 3
Mode extension : CM (complete main)
Codec ID : A_AC3
Duration : 20mn 55s
Bit rate mode : Constant
Bit rate : 384 Kbps
Channel(s) : 6 channels
Channel positions : Front: L C R, Side: L R, LFE
Sampling rate : 48.0 KHz
Bit depth : 16 bits
Compression mode : Lossy
Stream size : 57.5 MiB (9%)
Title : DD5.1
Language : English
Default : Yes
Forced : No

Text
ID : 3
Format : UTF-8
Codec ID : S_TEXT/UTF8
Codec ID/Info : UTF-8 Plain Text
Title : CC
Language : English
Default : Yes
Forced : No



Внимание!Раздача ведётся путём добавления новых серий; при каждом добавлении создётся новый торрент. Чтобы начать докачку новой серии, пользователям необходимо сделать следующее:
(1) остановить скачивание,
(2) удалить старый торрент у себя из клиента (старые серии удалять не надо),
(3) скачать новый торрент и запустить его у себя в клиенте вместо старого, при этом указать клиенту путь в старую папку куда и должно происходить скачивание новых серий.

Ваш клиент при этом должен произвести хеширование (проверку) старой папки (если не производит сам - помогите ему сделать это), и будет докачивать только те серии которых у вас ещё нет. Старые серии при этом не удаляются, а продолжают раздаваться!

Eсли вы уже удалили старые серии, то предотвратить повторную закачку старых серий можно, отжав галочку в соответсвующих местах при запуске нового торрента.



Скачать Как.я.встретил.вашу.маму.How.I.Met.Your.Mother.(09x01-19).(Памела.Фрайман.Роб.Гринберг).[2013.комедия.мелодрама.WEB-DL].[Sub].torrent без регистрации
Золото ЗОЛОТАЯ РАЗДАЧА! СКАЧАННОЕ НЕ ЗАСЧИТЫВАЕТСЯ! Золото
Дата: Зарегистрирован   [ Тип: внутренний ] Как тут cкачать?
MAGNET ссылка
MAGNET ссылка


Скачать .torrent

37 KB

Статус: проверено DHT
Скачан: торрент - 3055 раз, раздача полностью - 0 раз
Размер: 12,85 GB
Оценка:  - (Голосов: 0)
Поблагодарили: 0
Поделиться ссылкой на эту раздачу с друзьями:
В контактеFacebookОдноклассникиTwitterLivejournalМой МирLiveinternet
 

 
Показать сообщения:    


Вы не можете начинать темы
Вы не можете отвечать на сообщения
Вы не можете редактировать свои сообщения
Вы не можете удалять свои сообщения
Вы не можете голосовать в опросах
Вы не можете прикреплять файлы к сообщениям
Вы можете скачивать файлы