Loading...
Error

Скачать Дневники вампира / The Vampire Diaries (сезон 05) (Маркос Сига и др.) [2013-2014, драма, мелодрама, ужасы, WEB-DLRip-AVC] [MVO (LostFilm)]+[DVO (Кубик в Кубе)] торрент без регистрации

 
Статистика раздачи
Размер:  20,52 GB   |    Скачан:  225 раз
Сидов:  1  [  0 KB/s  ]  
 
Автор Сообщение

МихаНЕзатор

[] 

Информация о фильме
Название: Дневники Вампира
Оригинальное название: The Vampire Diaries
Год выхода: 2013-2014
Жанр: драма, мелодрама, ужасы
Режиссер: Маркос Сига, Роб Харди, Дэвид Фон Энкен, Дж. Миллер Тобин, Джон Беринг, Джошуа Батлер, Джон Дал, Лиз Фридлендер, Крис Грисмер, Венди Станцлер, Кевин Брэй

В ролях: Нина Добрев, Пол Уэсли, Иэн Сомерхолдер, Стивен Р. МакКуин, Катерина Грэхэм, Кэндис Аккола, Зак Рериг, Майкл Тревино, Джозеф Морган, Сара Каннинг, Кайла Юэлл, Дэвид Андерс, Клер Холт, Тейлор Кинни, Келли Ху, Роберт Пралго, Брайтон МакКлур, Михаэлла МакМанус, Джэсмин Гай, Рэнди Дж. Гудвин, Миа Киршнер, Лорен Коэн, Крис Дж. Джонсон, Себастьян Роше, Торри ДеВито, Бьянка Лоусон, Джек Коулмэн, Доун Оливери, Стерлинг Су

О фильме: После долгого заточения в склепе, Сайлас наконец-то выбрался на волю и сможет показать свое истинное лицо. Все случившиеся в последнее время обстоятельства, заставляют героев покинуть город и податься по своему пути, но вот смогут ли они так легко отделаться от замыслов судьбы. На удивление многих зрителей, одна из любимых героинь Кетрин предстанет перед нами в новом обличии, ей придется отвыкнуть от мысли, что она пятисотлетний вампир - теперь она просто смертный человек. Будут ли продолжаться такие жаркие отношения между Деймоном и Еленой в новом сезоне, какие новые шокирующие тайны хранит семья Сальваторе-об этом и многом другом в новом 5 сезоне.

Релиз от:

Выпущено: США
Студия: Reveille Productions, NBC Universal Television, Deedle-Dee Productions, Universal Media Studios (UMS), Universal TV
Продолжительность: 14 x ~ 00:43:00
Перевод: Профессиональный многоголосый, профессиональный двухголосый

Файл
Кодек: MPEG-4 AVC
Качество: WEB-DLRip-AVC
Видео: 2000 Кбит/с, 1024x576, 23.976 кадр/с
Звук:
Аудио #1: Русский (АС3, 6 ch, 384 Кбит/с) / Многоголосый закадровый (LostFilm)
Аудио #2: Русский (АС3, 6 ch, 384 Кбит/с) / Профессиональный двухголосый (Кубик в Кубе)
Аудио #3: Английский (АС3, 6 ch, 384 Кбит/с)
Субтитры: Русские (MEKC.info), английские

АНОНСЫ ПОПУЛЯРНЫХ РАЗДАЧ


21.05.2014 г. торент обновлён, добавлена 21-22 серия!

01. Я знаю, что ты делал прошлым летом
02. Правдивая ложь
03. Первородный грех
04. По ком звонит колокол
05. Бал монстров
06. Обращаться осторожно
07. Смерть и дева
08. Мертвец в колледже
09. Клетка
10. 50 оттенков Грэйсона
11. 500 лет одиночества
12. Дьявол внутри
13. Полное затмение сердца
14. Выхода нет
15. Пропавшая
16. Пока ты спал
17. Спаси меня
18. Обитель зла
19. В огне
20. Что скрывает ложь
21. Земля обетованная
22. Дом

General
Unique ID : 240771280037553119561369073641500533699 (0xB522DC9EBF0FC0EBAF4919A4211D63C3)
Complete name : D:РелизThe.Vampire.Diaries.S05E01.AVC.MINION.mkv
Format : Matroska
Format version : Version 4 / Version 2
File size : 959 MiB
Duration : 42mn 31s
Overall bit rate : 3 155 Kbps
Movie name : Rip by MINION
Encoded date : UTC 2013-12-08 18:17:43
Writing application : mkvmerge v6.6.0 ('The Edge Of The In Between') built on Dec 1 2013 17:55:00
Writing library : libebml v1.3.0 + libmatroska v1.4.1

Video
ID : 1
Format : AVC
Format/Info : Advanced Video Codec
Format profile : High@L4.1
Format settings, CABAC : Yes
Format settings, ReFrames : 8 frames
Codec ID : V_MPEG4/ISO/AVC
Duration : 42mn 31s
Bit rate : 2 000 Kbps
Width : 1 024 pixels
Height : 576 pixels
Display aspect ratio : 16:9
Frame rate mode : Constant
Frame rate : 23.976 fps
Color space : YUV
Chroma subsampling : 4:2:0
Bit depth : 8 bits
Scan type : Progressive
Bits/(Pixel*Frame) : 0.141
Stream size : 590 MiB (61%)
Title : 01 - Я знаю, что ты делал прошлым летом
Writing library : x264 core 133 r2334 a3ac64b
Encoding settings : cabac=1 / ref=8 / deblock=1:-1:-1 / analyse=0x3:0x113 / me=umh / subme=10 / psy=1 / psy_rd=1.00:0.00 / mixed_ref=1 / me_range=16 / chroma_me=1 / trellis=2 / 8x8dct=1 / cqm=0 / deadzone=21,11 / fast_pskip=0 / chroma_qp_offset=-2 / threads=6 / lookahead_threads=1 / sliced_threads=0 / nr=0 / decimate=1 / interlaced=0 / bluray_compat=0 / constrained_intra=0 / bframes=8 / b_pyramid=2 / b_adapt=2 / b_bias=0 / direct=1 / weightb=1 / open_gop=0 / weightp=2 / keyint=240 / keyint_min=23 / scenecut=40 / intra_refresh=0 / rc_lookahead=40 / rc=2pass / mbtree=1 / bitrate=2000 / ratetol=1.0 / qcomp=0.60 / qpmin=0 / qpmax=69 / qpstep=4 / cplxblur=20.0 / qblur=0.5 / ip_ratio=1.40 / aq=1:1.00
Language : English
Default : Yes
Forced : No

Audio #1
ID : 2
Format : AC-3
Format/Info : Audio Coding 3
Mode extension : CM (complete main)
Format settings, Endianness : Big
Codec ID : A_AC3
Duration : 42mn 31s
Bit rate mode : Constant
Bit rate : 384 Kbps
Channel count : 6 channels
Channel positions : Front: L C R, Side: L R, LFE
Sampling rate : 48.0 KHz
Bit depth : 16 bits
Compression mode : Lossy
Stream size : 117 MiB (12%)
Title : LostFilm
Language : Russian
Default : Yes
Forced : No

Audio #2
ID : 3
Format : AC-3
Format/Info : Audio Coding 3
Mode extension : CM (complete main)
Format settings, Endianness : Big
Codec ID : A_AC3
Duration : 42mn 31s
Bit rate mode : Constant
Bit rate : 384 Kbps
Channel count : 6 channels
Channel positions : Front: L C R, Side: L R, LFE
Sampling rate : 48.0 KHz
Bit depth : 16 bits
Compression mode : Lossy
Stream size : 117 MiB (12%)
Title : Кубик в Кубе
Language : Russian
Default : No
Forced : No

Audio #3
ID : 4
Format : AC-3
Format/Info : Audio Coding 3
Mode extension : CM (complete main)
Format settings, Endianness : Big
Codec ID : A_AC3
Duration : 42mn 31s
Bit rate mode : Constant
Bit rate : 384 Kbps
Channel count : 6 channels
Channel positions : Front: L C R, Side: L R, LFE
Sampling rate : 48.0 KHz
Bit depth : 16 bits
Compression mode : Lossy
Stream size : 117 MiB (12%)
Language : English
Default : No
Forced : No

Text #1
ID : 5
Format : UTF-8
Codec ID : S_TEXT/UTF8
Codec ID/Info : UTF-8 Plain Text
Title : Meks
Language : Russian
Default : No
Forced : No

Text #2
ID : 6
Format : UTF-8
Codec ID : S_TEXT/UTF8
Codec ID/Info : UTF-8 Plain Text
Language : English
Default : No
Forced : No : 0.141
Stream size



Скачать Дневники.вампира.The.Vampire.Diaries.(сезон.05).(Маркос.Сига.и.др.).[2013-2014.драма.мелодрама.ужасы.WEB-DLRip-AVC].[MVO.(LostFilm)]+[DVO.(Кубик.в.Кубе)].torrent без регистрации
Золото ЗОЛОТАЯ РАЗДАЧА! СКАЧАННОЕ НЕ ЗАСЧИТЫВАЕТСЯ! Золото
Дата: Зарегистрирован   [ Тип: внутренний ] Как тут cкачать?
MAGNET ссылка
MAGNET ссылка


Скачать .torrent

54 KB

Статус: проверено DHT
Скачан: торрент - 225 раз, раздача полностью - 14 раз
Размер: 20,52 GB
Оценка:  - (Голосов: 0)
Поблагодарили: 2
Поделиться ссылкой на эту раздачу с друзьями:
В контактеFacebookОдноклассникиTwitterLivejournalМой МирLiveinternet
 

 

МихаНЕзатор

[] 

Раздача обновлена.
 
Показать сообщения:    


Вы не можете начинать темы
Вы не можете отвечать на сообщения
Вы не можете редактировать свои сообщения
Вы не можете удалять свои сообщения
Вы не можете голосовать в опросах
Вы не можете прикреплять файлы к сообщениям
Вы можете скачивать файлы