Loading...
Error

Скачать Навесной огонь / Затяжной выстрел / Hangfire (Питер Марис) [1991, боевик, триллер, DVDRip] [DVO] торрент без регистрации

 
Статистика раздачи
Размер:  1,46 GB   |    Скачан:  127 раз

Полного источника не было: 24 минуты

 
Автор Сообщение

Marsianka

[] 

Информация о фильме
Название: Навесной огонь / Затяжной выстрел /
Оригинальное название: Hangfire
Год выхода: 1991
Жанр: боевик, триллер
Режиссер: Питер Марис / Peter Maris
В ролях: Брэд Дэвис, Ким Дилейни, Кен Фори, Ли де Бру, Ян-Майкл Винсент, Джордж Кеннеди, Яфет Котто

О фильме:
Однажды утром в штате Нью-Мексико на шоссе случилась авария: легковая машина на полном ходу врезалась в автоцистерну с ядовитым газом. Ветер понес облако с токсичными веществами в сторону тюрьмы штата. Пришлось начать срочную эвакуацию заключенных. В суете один из самых жестоких рецидивистов Билли угнал автобус с зэками и в результате отряд головорезов, готовых на все, забаррикадировался в маленьком городке Сонора, взяв в заложники многих жителей. Два крутых ветерана вьетнамской войны вынуждены вспомнить личный армейский опыт, чтобы остановить банду преступников, терроризирующих жителей маленького городка.



Страна: США
Продолжительность: 01:29:10
Перевод: Профессиональный (двухголосый закадровый)

Файл
Кодек: XviD
Качество: DVDRip
Видео: 720x400 (1.80:1), 23.976 fps, XviD build 50 ~2147 kbps avg, 0.31 bit/pixel
Звук: 48 kHz, AC3 Dolby Digital, 2/0 (L,R) ch, ~192 kbps

Семпл
DownloadsHangfire_1991.DVDRip.avi
Format : AVI
Format/Info : Audio Video Interleave
File size : 1.46 GiB
Duration : 1h 29mn
Overall bit rate : 2 349 Kbps
Writing application : VirtualDubMod 1.5.10.3 | http://www.virtualdub-fr.org || (build 2550/release)
Writing library : VirtualDubMod build 2550/release

Video
ID : 0
Format : MPEG-4 Visual
Format profile : Advanced Simple@L5
Format settings, BVOP : 3
Format settings, QPel : No
Format settings, GMC : No warppoints
Format settings, Matrix : Default (H.263)
Codec ID : XVID
Codec ID/Hint : XviD
Duration : 1h 29mn
Bit rate : 2 148 Kbps
Width : 720 pixels
Height : 400 pixels
Display aspect ratio : 16:9
Frame rate : 23.976 fps
Color space : YUV
Chroma subsampling : 4:2:0
Bit depth : 8 bits
Scan type : Progressive
Compression mode : Lossy
Bits/(Pixel*Frame) : 0.311
Stream size : 1.34 GiB (91%)
Writing library : XviD 1.2.1 (UTC 2008-12-04)

Audio
ID : 1
Format : AC-3
Format/Info : Audio Coding 3
Mode extension : CM (complete main)
Format settings, Endianness : Big
Codec ID : 2000
Duration : 1h 29mn
Bit rate mode : Constant
Bit rate : 192 Kbps
Channel(s) : 2 channels
Channel positions : Front: L R
Sampling rate : 48.0 KHz
Bit depth : 16 bits
Compression mode : Lossy
Stream size : 123 MiB (8%)
Alignment : Split accross interleaves
Interleave, duration : 42 ms (1.00 video frame)
Interleave, preload duration : 500 ms



Скачать Навесной.огонь.Затяжной.выстрел.Hangfire.(Питер.Марис).[1991.боевик.триллер.DVDRip].[DVO].torrent без регистрации
Золото ЗОЛОТАЯ РАЗДАЧА! СКАЧАННОЕ НЕ ЗАСЧИТЫВАЕТСЯ! Золото
Дата: Зарегистрирован   [ Тип: внутренний ] Как тут cкачать?
MAGNET ссылка
MAGNET ссылка


Скачать .torrent

15 KB

Статус: проверено DHT
Скачан: торрент - 127 раз, раздача полностью - 9 раз
Размер: 1,46 GB
Оценка:  - (Голосов: 0)
Поблагодарили: 1
Поделиться ссылкой на эту раздачу с друзьями:
В контактеFacebookОдноклассникиTwitterLivejournalМой МирLiveinternet
 

 
Показать сообщения:    


Вы не можете начинать темы
Вы не можете отвечать на сообщения
Вы не можете редактировать свои сообщения
Вы не можете удалять свои сообщения
Вы не можете голосовать в опросах
Вы не можете прикреплять файлы к сообщениям
Вы можете скачивать файлы