Loading...
Error

Скачать Викинги / Vikings (сезоны 01-02) (Киаран Доннелли, Йохан Ренк, Кен Джиротти) [2014, историческая драма, исторические приключения, боевик, викинги, WEB-DLRip] [MVO (BaibaKo)] торрент без регистрации

 
Статистика раздачи
Размер:  14,29 GB   |    Скачан:  287 раз

Полного источника не было: 28 минут

 
Автор Сообщение

МихаНЕзатор

[] 

Название: Викинги
Оригинальное название: Vikings
Год выпуска: 2014
Жанр: историческая драма, исторические приключения, боевик, викинги
Режиссер: Киаран Доннелли, Йохан Ренк, Кен Джиротти

В ролях: Трэвис Фиммел, Клайв Стэнден, Кэтрин Уинник, Гэбриел Бирн, Джессалин Гилсиг, Густаф Скарсгард, Джефферсон Холл, Джордж Благден, Тадж Мерфи, Диармэйд Мурта

Описание: История повествует о приключениях величайшего героя своего времени Рагнара Лодброка. В сериале показан Рагнар со своим племенем братьев-викингов и его семьёй в процессе становления королём всех племён викингов. Рагнар бесстрашный воин, и религиозный викинг, который объединяет все племена и распространяет среди них поклонение скандинавским богам. Согласно легенде, он прямой потомок Одина, бога войны и воителей.



Выпущено: Ирландия, Канада, Irish Film Board, Take 5 Productions, World 2000 Entertainment
Продолжительность: 1 x 00:44:00
Перевод: Профессиональный многоголосый - BaibaKo

Качество: WEB-DLRip
Видео: XviD, 1905 Кбит/с, 720x400
Аудио rus: AC3, 6 ch, 384 Кбит/с
Аудио eng: AC3, 6 ch, 384 Кбит/с

АНОНСЫ ПОПУЛЯРНЫХ РАЗДАЧ


27.05.2014 г. торент обновлён, добавлена 1-й сезон!

Сезон 1
01. Обряды / Rites of Passage
02. Гнев северян / Wrath of Northmen
03. Обездоленные / Dispossessed
04. Испытание / Trail (24 марта)
05. Набег / Raid (31 марта)
06. Погребение мертвых / Burial of the Dead (7 апреля)
07. Королевский выкуп / A King's Ransom (14 апреля)
08. Жертвоприношение / Sacrifice (21 апреля)
09. Все изменится / All Change (28 апреля)

Сезон 2
01. Братская война / Brother`s War
02. Вторжение / Invasion
03. Предательство / Treachery
04. Око за око / Eye For an Eye
05. Истина в крови / Answers in Blood
06. Не прощенный / Unforgiven
07. Кровавый орёл / Blood Eagle
08. Бескостный / Boneless
09. Выбор / The Choice
10. Отче наш / The Lord's Prayer
Полное имя : E:Vikings.s02.tahiyVikings.s02.01.tahiy.avi
Формат : AVI
Формат/Информация : Audio Video Interleave
Размер файла : 848 Мбайт
Продолжительность : 44 м.
Общий поток : 2687 Кбит/сек
Название фильма : Vikings.tahiy
Программа кодирования : VirtualDubMod 1.5.10.3 | www.virtualdub-fr.org || (build 2550/release)
Библиотека кодирования : VirtualDubMod build 2550/release

Видео
Идентификатор : 0
Формат : MPEG-4 Visual
Профиль формата : Advanced Simple@L5
Параметр BVOP формата : 1
Параметр QPel формата : Нет
Параметр GMC формата : Без точки перехода
Параметр матрицы формата : Default (MPEG)
Идентификатор кодека : XVID
Идентификатор кодека/Подсказка : XviD
Продолжительность : 44 м.
Битрейт : 1905 Кбит/сек
Ширина : 720 пикселей
Высота : 400 пикселей
Соотношение сторон : 16:9
Частота кадров : 23,976 кадра/сек
Цветовое пространство : YUV
Субдискретизация насыщенности : 4:2:0
Битовая глубина : 8 бит
Тип развёртки : Прогрессивная
Метод сжатия : С потерями
Бит/(Пиксели*Кадры) : 0.276
Размер потока : 601 Мбайт (71%)
Библиотека кодирования : XviD 1.2.1 (UTC 2008-12-04)

Аудио #1
Идентификатор : 1
Формат : AC-3
Формат/Информация : Audio Coding 3
Расширение режима : CM (complete main)
Параметр Endianness формата : Big
Идентификатор кодека : 2000
Продолжительность : 44 м.
Вид битрейта : Постоянный
Битрейт : 384 Кбит/сек
Каналы : 6 каналов
Расположение каналов : Front: L C R, Side: L R, LFE
Частота : 48,0 КГц
Битовая глубина : 16 бит
Метод сжатия : С потерями
Размер потока : 121 Мбайт (14%)
Выравнивание : Разделение по промежуткам
Продолжительность промежутка : 42 мс. (1,00 видеокадр)
Время предзагрузки промежутка : 500 мс.

Аудио #2
Идентификатор : 2
Формат : AC-3
Формат/Информация : Audio Coding 3
Расширение режима : CM (complete main)
Параметр Endianness формата : Big
Идентификатор кодека : 2000
Продолжительность : 44 м.
Вид битрейта : Постоянный
Битрейт : 384 Кбит/сек
Каналы : 6 каналов
Расположение каналов : Front: L C R, Side: L R, LFE
Частота : 48,0 КГц
Битовая глубина : 16 бит
Метод сжатия : С потерями
Размер потока : 121 Мбайт (14%)
Выравнивание : Разделение по промежуткам
Продолжительность промежутка : 42 мс. (1,00 видеокадр)
Время предзагрузки промежутка : 500 мс.
Раздача ведётся путём добавления новых серий; при каждом добавлении создаётся новый торрент. Чтобы начать докачку новой серии, пользователям необходимо сделать следующее:
(1) остановить скачивание,
(2) удалить старый торрент у себя из клиента (старые серии удалять не надо),
(3) скачать новый торрент и запустить его у себя в клиенте вместо старого, при этом указать клиенту путь в старую папку куда и должно происходить скачивание новых серий.

Ваш клиент при этом должен произвести хеширование (проверку) старой папки (если не производит сам - помогите ему сделать это), и будет докачивать только те серии которых у вас ещё нет. Старые серии при этом не удаляются, а продолжают раздаваться!

Eсли вы уже удалили старые серии, то предотвратить повторную закачку старых серий можно, отжав галочку в соответствующих местах при запуске нового торрента. По возможности, желательно не удалять старые серии как можно дольше чтобы релизёр не столько продолжал раздавать старые серии, а смог сконцентрироваться на новых.

Ссылка на ютуб
Ссылка на DepositFiles
Ссылка на клиент 2.2.1 При установке не обновляйте!!!

1) Выделяем торрент одним нажатием левой кнопкой мыши.



2) Заходим на вкладку "Files (Файлы)"



3) И меняем нажатием правой кнопкой мыши приоритет на "Normal (нормальный)"




Скачать Викинги.Vikings.(сезоны.01-02).(Киаран.Доннелли.Йохан.Ренк.Кен.Джиротти).[2014.историческая.драма.исторические.приключения.боевик.викинги.WEB-DLRip].[MVO.(BaibaKo)].torrent без регистрации
Золото ЗОЛОТАЯ РАЗДАЧА! СКАЧАННОЕ НЕ ЗАСЧИТЫВАЕТСЯ! Золото
Дата: Зарегистрирован   [ Тип: внутренний ] Как тут cкачать?
MAGNET ссылка
MAGNET ссылка


Скачать .torrent

73 KB

Статус: проверено DHT
Скачан: торрент - 287 раз, раздача полностью - 24 раз
Размер: 14,29 GB
Оценка:  5 (Голосов: 2)
Поблагодарили: 6
Поделиться ссылкой на эту раздачу с друзьями:
В контактеFacebookОдноклассникиTwitterLivejournalМой МирLiveinternet
 

 

МихаНЕзатор

[] 

Раздача обновлена.
 
Показать сообщения:    


Вы не можете начинать темы
Вы не можете отвечать на сообщения
Вы не можете редактировать свои сообщения
Вы не можете удалять свои сообщения
Вы не можете голосовать в опросах
Вы не можете прикреплять файлы к сообщениям
Вы можете скачивать файлы