Loading...
Error

Скачать Останься / Stay (Марк Форстер) [2005, триллер, драма, детектив, BDRip-AVC] [DVO] (НТВ+) торрент без регистрации

 
Статистика раздачи
Размер:  2,18 GB   |    Скачан:  122 раза
Сидов:  1  [  0 KB/s  ]  
 
Автор Сообщение

Marsianka

[] 

Информация о фильме
Название: Останься
Оригинальное название: Stay
Год выхода: 2005
Жанр: триллер, драма, детектив
Режиссер: Марк Форстер
В ролях: Юэн МакГрегор, Райан Гослинг, Кейт Бёртон, Наоми Уоттс, Элизабет Ризер, Боб Хоскинс, Джанин Гарофало

О фильме:
Находящийся на грани помешательства студент Генри Лезем рассказывает психиатру Сэму Фостеру о том, что покончит с собой в субботу в полночь. Не желая допустить гибели Генри, Сэм решает сделать все от него зависящее, чтобы избавить парня от навязчивой идеи. Он отправляется вместе с ним в путешествие по городу, в ходе которого и сам постепенно начинает погружаться в кошмарные иллюзии пациента, вместе с ним балансируя на тонкой грани между жизнью и смертью



Страна: США
Продолжительность: 01:38:55
Перевод: Профессиональное (двухголосое) НТВ+

Файл
Кодек: MKV
Качество: BDRip-AVC
Видео: 1088x464, AVC, 23.976 fps, 2706 kbps
Звук: 48 kHz, AC3 Dolby Digital, 3/2 (L,C,R,l,r) + LFE ch, ~448.00 kbps

General
Unique ID : 200682558817023947504602541771313101591 (0x96FA0E102ADEDFB1B4DF3AA9E733BB17)
Complete name : D:КИНОOstan'sja.(2005).BDRip-AVC.[-=DoMiNo=-].mkv
Format : Matroska
Format version : Version 2
File size : 2.18 GiB
Duration : 1h 38mn
Overall bit rate : 3 156 Kbps
Encoded date : UTC 2014-03-06 21:09:59
Writing application : mkvmerge v6.1.0 ('Old Devil') built on Mar 4 2013 09:10:42
Writing library : libebml v1.3.0 + libmatroska v1.4.0

Video
ID : 1
Format : AVC
Format/Info : Advanced Video Codec
Format profile : High@L4.1
Format settings, CABAC : Yes
Format settings, ReFrames : 12 frames
Codec ID : V_MPEG4/ISO/AVC
Duration : 1h 38mn
Bit rate : 2 706 Kbps
Width : 1 088 pixels
Height : 464 pixels
Display aspect ratio : 2.35:1
Frame rate mode : Constant
Frame rate : 23.976 fps
Color space : YUV
Chroma subsampling : 4:2:0
Bit depth : 8 bits
Scan type : Progressive
Bits/(Pixel*Frame) : 0.224
Stream size : 1.83 GiB (84%)
Writing library : x264 core 130 r2273 b3065e6
Encoding settings : cabac=1 / ref=12 / deblock=1:-3:-3 / analyse=0x3:0x133 / me=umh / subme=11 / psy=1 / psy_rd=1.00:0.10 / mixed_ref=1 / me_range=32 / chroma_me=1 / trellis=2 / 8x8dct=1 / cqm=0 / deadzone=21,11 / fast_pskip=0 / chroma_qp_offset=-6 / threads=6 / lookahead_threads=6 / sliced_threads=0 / slices=4 / nr=0 / decimate=0 / interlaced=0 / bluray_compat=0 / constrained_intra=0 / bframes=8 / b_pyramid=2 / b_adapt=2 / b_bias=0 / direct=3 / weightb=1 / open_gop=1 / weightp=2 / keyint=240 / keyint_min=23 / scenecut=40 / intra_refresh=0 / rc_lookahead=60 / rc=2pass / mbtree=1 / bitrate=2706 / ratetol=1.0 / qcomp=0.60 / qpmin=0 / qpmax=69 / qpstep=4 / cplxblur=20.0 / qblur=0.5 / ip_ratio=1.40 / aq=1:1.50
Default : Yes
Forced : No

Audio
ID : 2
Format : AC-3
Format/Info : Audio Coding 3
Mode extension : CM (complete main)
Format settings, Endianness : Big
Codec ID : A_AC3
Duration : 1h 38mn
Bit rate mode : Constant
Bit rate : 448 Kbps
Channel(s) : 6 channels
Channel positions : Front: L C R, Side: L R, LFE
Sampling rate : 48.0 KHz
Bit depth : 16 bits
Compression mode : Lossy
Stream size : 317 MiB (14%)
Default : Yes
Forced : No



Скачать Останься.Stay.(Марк.Форстер).[2005.триллер.драма.детектив.BDRip-AVC].[DVO].(НТВ+).torrent без регистрации
Золото ЗОЛОТАЯ РАЗДАЧА! СКАЧАННОЕ НЕ ЗАСЧИТЫВАЕТСЯ! Золото
Дата: Зарегистрирован   [ Тип: внутренний ] Как тут cкачать?
MAGNET ссылка
MAGNET ссылка


Скачать .torrent

12 KB

Статус: проверено DHT
Скачан: торрент - 122 раз, раздача полностью - 42 раз
Размер: 2,18 GB
Оценка:  5 (Голосов: 1)
Поблагодарили: 4
Поделиться ссылкой на эту раздачу с друзьями:
В контактеFacebookОдноклассникиTwitterLivejournalМой МирLiveinternet
 

 
Показать сообщения:    


Вы не можете начинать темы
Вы не можете отвечать на сообщения
Вы не можете редактировать свои сообщения
Вы не можете удалять свои сообщения
Вы не можете голосовать в опросах
Вы не можете прикреплять файлы к сообщениям
Вы можете скачивать файлы