Loading...
Error

Скачать Приятель Джои / Pal Joey (Джордж Сидни) [1957, мюзикл, драма, мелодрама, BDRip] [MVO]+[AVO]+[Sub] торрент без регистрации

 
Статистика раздачи
Размер:  2,09 GB   |    Скачан:  109 раз
Сидов:  1  [  0 KB/s  ]  
 
Автор Сообщение

Marsianka

[] 

Название: Приятель Джои
Оригинальное название: Pal Joey
Год выпуска: 1957
Жанр: мюзикл, драма, мелодрама
Выпущено: США, Essex Productions, George Sidney Productions
Режиссер: Джордж Сидни
В ролях: Рита Хэйворт, Фрэнк Синатра, Ким Новак, Барбара Николс, Бобби Шервуд, Хэнк Генри, Элизабет Паттерсон, Франклин Фэрнум, Бесс Флауэрс, Пьер Уаткин

О фильме: Шикарная комедия с Фрэнком Синатрой в роли отчаянного ловеласа Джои, любителя блондинок и брюнеток, толстых и худых, молодых и не очень. Скрываясь от очередного обманутого мужа в маленьком городе, он становится постановщиком ревю и соблазняет и спонсора постановки Веру Симпсон, и главную звезду Линду.

Качество: BDRip
Видео: XviD, 1899 Кбит/с, 720x384
Аудио: Русский (AC3, 2 ch, 192 Кбит/с), английский (AC3, 6 ch, 448 Кбит/с)
Размер: 2.09 ГБ
Продолжительность: 01:49:07
Перевод: Профессиональный многоголосый, авторский (Григорий Либергал)
Субтитры: Английские

Исходник: karpov82 (Кинозал)

Сравнение с исходником

Оскар, 1958 год
Номинации (4):
Лучшие декорации
Лучшие костюмы
Лучший звук
Лучший монтаж

Золотой глобус, 1958 год
Победитель (1):
Лучшая мужская роль (комедия или мюзикл) (Фрэнк Синатра)

Номинации (1):
Лучший фильм (комедия или мюзикл)
Общее
Полное имя : D:VideoPrijatel Dgoi.1957.XviD.BDRipPrijatel Dgoi.1957.eng.srt
Формат : SubRip
Размер файла : 99,9 Кбайт

Текст
Формат : SubRip
Метод сжатия : Без потерь

Общее
Полное имя : D:VideoPrijatel Dgoi.1957.XviD.BDRipPrijatel Dgoi.1957.Original.eng.ac3
Формат : AC-3
Формат/Информация : Audio Coding 3
Размер файла : 350 Мбайт
Продолжительность : 1 ч. 49 м.
Режим общего битрейта : Постоянный
Общий поток : 448 Кбит/сек

Аудио
Формат : AC-3
Формат/Информация : Audio Coding 3
Расширение режима : CM (complete main)
Параметр Endianness формата : Big
Продолжительность : 1 ч. 49 м.
Вид битрейта : Постоянный
Битрейт : 448 Кбит/сек
Каналы : 6 каналов
Расположение каналов : Front: L C R, Side: L R, LFE
Частота : 48,0 КГц
Битовая глубина : 16 бит
Метод сжатия : С потерями
Размер потока : 350 Мбайт (100%)

Общее
Полное имя : D:VideoPrijatel Dgoi.1957.XviD.BDRipPrijatel Dgoi.1957.XviD.BDRip.avi
Формат : AVI
Формат/Информация : Audio Video Interleave
Размер файла : 1,75 Гбайт
Продолжительность : 1 ч. 49 м.
Общий поток : 2297 Кбит/сек
Программа кодирования : VirtualDubMod 1.5.10.2 (build 2540/release)
Библиотека кодирования : VirtualDubMod build 2540/release

Видео
Идентификатор : 0
Формат : MPEG-4 Visual
Профиль формата : Advanced Simple@L5
Параметр BVOP формата : 1
Параметр QPel формата : Нет
Параметр GMC формата : Без точки перехода
Параметр матрицы формата : Default (H.263)
Режим смешивания : Сжатый битовый поток
Идентификатор кодека : XVID
Идентификатор кодека/Подсказка : XviD
Продолжительность : 1 ч. 49 м.
Битрейт : 1899 Кбит/сек
Ширина : 720 пикселей
Высота : 384 пикселя
Соотношение сторон : 1,85:1
Частота кадров : 23,976 кадра/сек
Цветовое пространство : YUV
Субдискретизация насыщенности : 4:2:0
Битовая глубина : 8 бит
Тип развёртки : Прогрессивная
Метод сжатия : С потерями
Бит/(Пиксели*Кадры) : 0.286
Размер потока : 1,45 Гбайт (83%)
Библиотека кодирования : XviD 1.2.1 (UTC 2008-12-04)

Аудио #1
Идентификатор : 1
Формат : AC-3
Формат/Информация : Audio Coding 3
Расширение режима : CM (complete main)
Параметр Endianness формата : Big
Идентификатор кодека : 2000
Продолжительность : 1 ч. 49 м.
Вид битрейта : Постоянный
Битрейт : 192 Кбит/секКаналы : 2 каналаРасположение каналов : Front: L RЧастота : 48,0 КГцБитовая глубина : 16 битМетод сжатия : С потерямиРазмер потока : 150 Мбайт (8%)Выравнивание : Разделение по промежуткамПродолжительность промежутка : 42 мс. (1,00 видеокадр)Время предзагрузки промежутка : 500 мс.Аудио #2Идентификатор : 2Формат : AC-3Формат/Информация : Audio Coding 3Расширение режима : CM (complete main)Параметр Endianness формата : BigИдентификатор кодека : 2000Продолжительность : 1 ч. 49 м.Вид битрейта : ПостоянныйБитрейт : 192 Кбит/секКаналы : 2 каналаРасположение каналов : Front: L RЧастота : 48,0 КГцБитовая глубина : 16 битМетод сжатия : С потерямиРазмер потока : 150 Мбайт (8%)Выравнивание : Разделение по промежуткамПродолжительность промежутка : 42 мс. (1,00 видеокадр)Время предзагрузки промежутка : 500 мс.



Скачать Приятель.Джои.Pal.Joey.(Джордж.Сидни).[1957.мюзикл.драма.мелодрама.BDRip].[MVO]+[AVO]+[Sub].torrent без регистрации
Золото ЗОЛОТАЯ РАЗДАЧА! СКАЧАННОЕ НЕ ЗАСЧИТЫВАЕТСЯ! Золото
Дата: Зарегистрирован   [ Тип: внутренний ] Как тут cкачать?
MAGNET ссылка
MAGNET ссылка


Скачать .torrent

11 KB

Статус: проверено DHT
Скачан: торрент - 109 раз, раздача полностью - 1 раз
Размер: 2,09 GB
Оценка:  5 (Голосов: 1)
Поблагодарили: 2
Поделиться ссылкой на эту раздачу с друзьями:
В контактеFacebookОдноклассникиTwitterLivejournalМой МирLiveinternet
 

 
Показать сообщения:    


Вы не можете начинать темы
Вы не можете отвечать на сообщения
Вы не можете редактировать свои сообщения
Вы не можете удалять свои сообщения
Вы не можете голосовать в опросах
Вы не можете прикреплять файлы к сообщениям
Вы можете скачивать файлы