Loading...
Error

Скачать День, когда Земля остановилась / The Day the Earth Stood Still (Скотт Дерриксон) [2008, фантастика, триллер, драма, BDRip-AVC] [Dub] торрент без регистрации

 
Статистика раздачи
Размер:  2,18 GB   |    Скачан:  162 раза
Сидов:  1  [  0 KB/s  ]  
 
Автор Сообщение

МихаНЕзатор

[] 

Информация о фильме
Название: День, когда Земля остановилась
Оригинальное название: The Day the Earth Stood Still
Год выхода: 2008
Жанр: фантастика, триллер, драма
Режиссер: Скотт Дерриксон

В ролях: Киану Ривз, Дженнифер Коннелли, Кэти Бейтс, Джейден Смит, Джон Клиз, Джон Хэмм, Кайл Чандлер, Роберт Нэппер, Джеймс Хон, Джон Ротмен

О фильме: Римейк фантастического блокбастера 1951 года. Оригинал рассказывал об инопланетянине, который прибыл на нашу планету с предупреждением: если не будут прекращены войны и разрушения, Земля будет уничтожена извне, поскольку представляет угрозу для остальной Вселенной!



Выпущено: США, Twentieth Century Fox Film Corporation
Продолжительность: 01:43:35
Перевод: Дублированный

Файл
Формат: AVI
Качество: BDRip-AVC
Видео: 1168x496, 2564 kbps, 23.976 fps
Аудио: AC-3, 448 Kbps, 6 channels

АНОНСЫ ПОПУЛЯРНЫХ РАЗДАЧ
General
Unique ID : 188313582557931202241040609392483529603 (0x8DABE0733BA4AE1699BFAD8607EA7383)
Complete name : D:КИНОDen'.Kogda.Zemlja.Ostanovilas'.(2008).BDRip-AVC.[-=DoMiNo=-].mkv
Format : Matroska
Format version : Version 2
File size : 2.18 GiB
Duration : 1h 43mn
Overall bit rate : 3 012 Kbps
Encoded date : UTC 2014-03-07 21:33:23
Writing application : mkvmerge v6.1.0 ('Old Devil') built on Mar 4 2013 09:10:42
Writing library : libebml v1.3.0 + libmatroska v1.4.0

Video
ID : 1
Format : AVC
Format/Info : Advanced Video Codec
Format profile : High@L4.1
Format settings, CABAC : Yes
Format settings, ReFrames : 12 frames
Codec ID : V_MPEG4/ISO/AVC
Duration : 1h 43mn
Bit rate : 2 564 Kbps
Width : 1 168 pixels
Height : 496 pixels
Display aspect ratio : 2.35:1
Frame rate mode : Constant
Frame rate : 23.976 fps
Color space : YUV
Chroma subsampling : 4:2:0
Bit depth : 8 bits
Scan type : Progressive
Bits/(Pixel*Frame) : 0.185
Stream size : 1.81 GiB (83%)
Writing library : x264 core 130 r2273 b3065e6
Encoding settings : cabac=1 / ref=12 / deblock=1:-3:-3 / analyse=0x3:0x133 / me=umh / subme=11 / psy=1 / psy_rd=1.00:0.10 / mixed_ref=1 / me_range=32 / chroma_me=1 / trellis=2 / 8x8dct=1 / cqm=0 / deadzone=21,11 / fast_pskip=0 / chroma_qp_offset=-6 / threads=6 / lookahead_threads=6 / sliced_threads=0 / slices=4 / nr=0 / decimate=0 / interlaced=0 / bluray_compat=0 / constrained_intra=0 / bframes=8 / b_pyramid=2 / b_adapt=2 / b_bias=0 / direct=3 / weightb=1 / open_gop=1 / weightp=2 / keyint=240 / keyint_min=23 / scenecut=40 / intra_refresh=0 / rc_lookahead=60 / rc=2pass / mbtree=1 / bitrate=2564 / ratetol=1.0 / qcomp=0.60 / qpmin=0 / qpmax=69 / qpstep=4 / cplxblur=20.0 / qblur=0.5 / ip_ratio=1.40 / aq=1:1.50
Default : Yes
Forced : No

Audio
ID : 2
Format : AC-3
Format/Info : Audio Coding 3
Mode extension : CM (complete main)
Format settings, Endianness : Big
Codec ID : A_AC3
Duration : 1h 43mn
Bit rate mode : Constant
Bit rate : 448 Kbps
Channel(s) : 6 channels
Channel positions : Front: L C R, Side: L R, LFE
Sampling rate : 48.0 KHz
Bit depth : 16 bits
Compression mode : Lossy
Stream size : 332 MiB (15%)
Default : Yes
Forced : No



Скачать День.когда.Земля.остановилась.The.Day.the.Earth.Stood.Still.(Скотт.Дерриксон).[2008.фантастика.триллер.драма.BDRip-AVC].[Dub].torrent без регистрации
Золото ЗОЛОТАЯ РАЗДАЧА! СКАЧАННОЕ НЕ ЗАСЧИТЫВАЕТСЯ! Золото
Дата: Зарегистрирован   [ Тип: внутренний ] Как тут cкачать?
MAGNET ссылка
MAGNET ссылка


Скачать .torrent

12 KB

Статус: проверено DHT
Скачан: торрент - 162 раз, раздача полностью - 145 раз
Размер: 2,18 GB
Оценка:  5 (Голосов: 4)
Поблагодарили: 5
Поделиться ссылкой на эту раздачу с друзьями:
В контактеFacebookОдноклассникиTwitterLivejournalМой МирLiveinternet
 

 
Показать сообщения:    


Вы не можете начинать темы
Вы не можете отвечать на сообщения
Вы не можете редактировать свои сообщения
Вы не можете удалять свои сообщения
Вы не можете голосовать в опросах
Вы не можете прикреплять файлы к сообщениям
Вы можете скачивать файлы