Loading...
Error

Скачать Викинги / Vikings (04x01-17 из 20) (Кен Джиротти и др.) [2016, боевик, драма, история, WEB-DL] [720p] 5x[MVO Rus, Ukr]+[Eng]+[Sub Rus, Eng] торрент без регистрации

Статистика раздачи
Размер:  32,85 GB   |    Скачан:  140 раз
Сидов:  3  [  0 KB/s  ]   Личеров:  8  [  0 KB/s  ]  
 
 
 
Автор Сообщение

МихаНЕзатор

[] 

Название: Викинги
Оригинальное название: Vikings
Год выхода: 2016
Жанр: боевик, драма, история
Режиссер: Кен Джиротти, Киаран Доннелли, Джефф Вулнаф

В ролях: Трэвис Фиммел, Клайв Стэнден, Густаф Скарсгард, Кэтрин Уинник, Джордж Благден, Джессалин Гилсиг, Мод Хирст, Алисса Сазерленд, Джефферсон Холл, Александр Людвиг и др.

Описание: История повествует о приключениях величайшего героя своего времени – Рагнара Лодброка. В сериале показан Рагнар со своим племенем братьев-викингов и его семьёй в процессе становления королём всех племён викингов. Рагнар – бесстрашный воин, и религиозный викинг, который объединяет все племена и распространяет среди них поклонение скандинавским богам. Согласно легенде, он – прямой потомок Одина, бога войны и воителей.



Страна: Ирландия, Канада
Продолжительность: 12 x ~ 00:45:00
Перевод:
Профессиональный (многоголосый закадровый) AlexFilm
Профессиональный (многоголосый закадровый) LostFilm
Любительский (многоголосый закадровый) OMSKBIRD records
Профессиональный (многоголосый закадровый) NewStudio
Любительский (многоголосый закадровый) BaibaKo

Качество: WEB-DL 720p
Контейнер: MKV
Видео: H.264, 1280x718 (16:9), 23,976 fps, ~4000 kbps, 0.181 bit/pixel
Аудио # 1: AC3, 48 kHz, 6 ch, 384 kbps - AlexFilm
Аудио # 2: AC3, 48 kHz, 6 ch, 384 kbps - LostFilm
Аудио # 3: AC3, 48 kHz, 6 ch, 384 kbps - OMSKBIRD records
Аудио # 4: AC3, 48 kHz, 6 ch, 384 kbps - NewStudio
Аудио # 5: AC3, 48 kHz, 6 ch, 384 kbps - BaibaKo
Аудио # 6: AC3, 48 kHz, 6 ch, 384 kbps - Оригинал
Субтитры: Русские (OmskBird), английские

АНОНСЫ ПОПУЛЯРНЫХ РАЗДАЧ


Торрент обновлён, добавлена 17-я серия!

Релиз: Grandfather61
Работа со звуком: Grandfather61
особая благодарность Михаилу Шорыгину (AlexFilm) и студии OmskBird за предоставленные голоса
Дорожка #1 получена наложением чистых голосов от «AlexFilm» на центр оригинального AC3
Дорожка #2 получена наложением выделенных голосов от «LostFilm» на центр оригинального AC3
Дорожка #3 получена наложением чистых голосов от «OMSKBIRD records» на центр оригинального AC3
Перевод субтитров: OMSKBIRD records
Cинхронизация субтитров: Grandfather61

01. Удачная измена (A Good Treason)
02. Убейте королеву! (Kill the Queen)
03. Милосердие (Mercy)
04. Йоль (Yol)
05. Обещанное (Promised)
06. Как могло бы быть (What Might Have Been)
07. Победы и утраты (The Profit and the Loss)
08. Сухопутный переход (Portage)
09. Смерть кругом (Death All 'Round)
10. Последний драккар (The Last Ship)
11. Изгой (The Outsider)
12. Видение (The Vision)
13. Два похода (Two Journeys)

Общее
Уникальный идентификатор : 179000851916364416426897702948627918255 (0x86AA4F613FCC1DA080C906437331ADAF)
Полное имя : G:FilmsVikings.s04.720p.SborkaVikings.S04E01.720p.WEB-DL.Sborka.DD5.1.mkv
Формат : Matroska
Версия формата : Version 4 / Version 2
Размер файла : 1,94 Гбайт
Продолжительность : 44 м.
Общий поток : 6301 Кбит/сек
Дата кодирования : UTC 2016-03-07 04:20:00
Программа кодирования : mkvmerge v8.6.1 ('Flying') 64bit
Библиотека кодирования : libebml v1.3.3 + libmatroska v1.4.4

Видео
Идентификатор : 1
Формат : AVC
Формат/Информация : Advanced Video Codec
Профиль формата : High@L3.1
Параметр CABAC формата : Нет
Параметр ReFrames формата : 2 кадра
Идентификатор кодека : V_MPEG4/ISO/AVC
Продолжительность : 44 м.
Битрейт : 3994 Кбит/сек
Ширина : 1280 пикселей
Высота : 718 пикселей
Соотношение сторон : 16:9
Режим частоты кадров : Постоянный
Частота кадров : 23,976 (23976/1000) кадра/сек
Цветовое пространство : YUV
Субдискретизация насыщенности : 4:2:0
Битовая глубина : 8 бит
Тип развёртки : Прогрессивная
Бит/(Пиксели*Кадры) : 0.181
Размер потока : 1,23 Гбайт (63%)
Язык : English
Default : Да
Forced : Нет
colour_range : Limited
Основные цвета : BT.709
Характеристики трансфера : BT.709
Коэффициенты матрицы : BT.709

Аудио #1
Идентификатор : 2
Формат : AC-3
Формат/Информация : Audio Coding 3
Расширение режима : CM (complete main)
Параметр Endianness формата : Big
Идентификатор кодека : A_AC3
Продолжительность : 44 м.
Вид битрейта : Постоянный
Битрейт : 384 Кбит/сек
Каналы : 6 каналов
Расположение каналов : Front: L C R, Side: L R, LFE
Частота : 48,0 КГц
Частота кадров : 31,250 кадров/сек (1536 spf)
Метод сжатия : С потерями
Размер потока : 121 Мбайт (6%)
Заголовок : AlexFilm 5.1
Язык : Russian
Default : Да
Forced : Нет

Аудио #2
Идентификатор : 3
Формат : AC-3
Формат/Информация : Audio Coding 3
Расширение режима : CM (complete main)
Параметр Endianness формата : Big
Идентификатор кодека : A_AC3
Продолжительность : 44 м.
Вид битрейта : Постоянный
Битрейт : 384 Кбит/сек
Каналы : 6 каналов
Расположение каналов : Front: L C R, Side: L R, LFE
Частота : 48,0 КГц
Частота кадров : 31,250 кадров/сек (1536 spf)
Метод сжатия : С потерями
Размер потока : 121 Мбайт (6%)
Заголовок : LostFilm 5.1
Язык : Russian
Default : Нет
Forced : Нет

Аудио #3
Идентификатор : 4
Формат : AC-3
Формат/Информация : Audio Coding 3
Расширение режима : CM (complete main)
Параметр Endianness формата : Big
Идентификатор кодека : A_AC3
Продолжительность : 44 м.
Вид битрейта : Постоянный
Битрейт : 384 Кбит/сек
Каналы : 6 каналов
Расположение каналов : Front: L C R, Side: L R, LFE
Частота : 48,0 КГц
Частота кадров : 31,250 кадров/сек (1536 spf)
Метод сжатия : С потерями
Размер потока : 121 Мбайт (6%)
Заголовок : OmskBird 5.1
Язык : Russian
Default : Нет
Forced : Нет

Аудио #4
Идентификатор : 5
Формат : AC-3
Формат/Информация : Audio Coding 3
Расширение режима : CM (complete main)
Параметр Endianness формата : Big
Идентификатор кодека : A_AC3
Продолжительность : 44 м.
Вид битрейта : Постоянный
Битрейт : 384 Кбит/сек
Каналы : 6 каналов
Расположение каналов : Front: L C R, Side: L R, LFE
Частота : 48,0 КГц
Частота кадров : 31,250 кадров/сек (1536 spf)
Метод сжатия : С потерями
Размер потока : 121 Мбайт (6%)
Заголовок : NewStudio 5.1
Язык : Russian
Default : Нет
Forced : Нет

Аудио #5
Идентификатор : 6
Формат : AC-3
Формат/Информация : Audio Coding 3
Расширение режима : CM (complete main)
Параметр Endianness формата : Big
Идентификатор кодека : A_AC3
Продолжительность : 44 м.
Вид битрейта : Постоянный
Битрейт : 384 Кбит/сек
Каналы : 6 каналов
Расположение каналов : Front: L C R, Side: L R, LFE
Частота : 48,0 КГц
Частота кадров : 31,250 кадров/сек (1536 spf)
Метод сжатия : С потерями
Размер потока : 121 Мбайт (6%)
Заголовок : BaibaKo 5.1
Язык : Russian
Default : Нет
Forced : Нет

Аудио #6
Идентификатор : 7
Формат : AC-3
Формат/Информация : Audio Coding 3
Расширение режима : CM (complete main)
Параметр Endianness формата : Big
Идентификатор кодека : A_AC3
Продолжительность : 44 м.
Вид битрейта : Постоянный
Битрейт : 384 Кбит/сек
Каналы : 6 каналов
Расположение каналов : Front: L C R, Side: L R, LFE
Частота : 48,0 КГц
Частота кадров : 31,250 кадров/сек (1536 spf)
Метод сжатия : С потерями
Размер потока : 121 Мбайт (6%)
Заголовок : original 5.1
Язык : English
Default : Нет
Forced : Нет

Текст #1
Идентификатор : 8
Формат : UTF-8
Идентификатор кодека : S_TEXT/UTF8
Идентификатор кодека/Информация : UTF-8 Plain Text
Продолжительность : 42 м.
Битрейт : 96 бит/сек
Count of elements : 399
Размер потока : 30,0 Кбайт (0%)
Заголовок : rus (OmskBird)
Язык : Russian
Default : Нет
Forced : Нет

Текст #2
Идентификатор : 9
Формат : UTF-8
Идентификатор кодека : S_TEXT/UTF8
Идентификатор кодека/Информация : UTF-8 Plain Text
Продолжительность : 43 м.
Битрейт : 40 бит/сек
Count of elements : 535
Размер потока : 13,0 Кбайт (0%)
Заголовок : CC
Язык : English
Default : Нет
Forced : Нет
Полностью отсутствует реклама




Скачать Викинги.Vikings.(04x01-17.из.20).(Кен.Джиротти.и.др.).[2016.боевик.драма.история.WEB-DL].[720p].5x[MVO.Rus.Ukr]+[Eng]+[Sub.Rus.Eng].torrent без регистрации
Золото ЗОЛОТАЯ РАЗДАЧА! СКАЧАННОЕ НЕ ЗАСЧИТЫВАЕТСЯ! Золото
Дата: Зарегистрирован   [ Тип: внешний ] Как тут cкачать?
MAGNET ссылка
MAGNET ссылка


Скачать .torrent

84 KB

Статус: проверено DHT
Скачан: торрент - 140 раз, раздача полностью - 0 раз
Размер: 32,85 GB
Оценка:  - (Голосов: 0)
Поблагодарили: 1
Поделиться ссылкой на эту раздачу с друзьями:
В контактеFacebookОдноклассникиTwitterLivejournalМой МирLiveinternet
 

 
Показать сообщения:    


Вы не можете начинать темы
Вы не можете отвечать на сообщения
Вы не можете редактировать свои сообщения
Вы не можете удалять свои сообщения
Вы не можете голосовать в опросах
Вы не можете прикреплять файлы к сообщениям
Вы можете скачивать файлы