Loading...
Error

Скачать Звездные врата / Stargate (Роланд Эммерих) [1994, фантастика, боевик, приключения, HDRip-AVC] [MVO]+[Sub] торрент без регистрации

 
Статистика раздачи
Размер:  1,8 GB   |    Скачан:  114 раз
Сидов:  1  [  0 KB/s  ]  
 
Автор Сообщение

Marsianka

[] 

Звездные врата / Stargate (1994) HDRip-AVC | iPhone | P


Название: Звездные врата
Оригинальное название: The Hunger Games: Catching Fire
Год выхода: 1994
Жанр: фантастика, боевик, приключения
Режиссер: Роланд Эммерих
В ролях: Курт Рассел, Джеймс Спэйдер, Джей Дэвидсон, Вивека Линдфорс, Алексис Крус, Мили Авитал, Леон Риппи, Джон Дил, Карлос Лаучу, Джимон Хонс

О фильме:
Долгие годы никому не удавалось расшифровать письмена на Звездных Вратах, найденных в Египте в 20-е годы. Но молодой ученый Дэниэл Джексон раскрыл их секрет. Вместе с отрядом американских солдат под командованием полковника Джонатана О'Нила он подходит к Звездным Вратам и попадает в другую Вселенную...



Страна: США, Франция
Студия: Canal+, Carolco Pictures Inc., MGM
Продолжительность: 02:09:59
Перевод: Русский профессиональный многоголосый закадровый

Файл
Кодек: H.264
Качество: HDRip-AVC 480p
Видео: 640x354@851x354 (2.40:1) at 23.976 fps, AVC at 1700 kbps
1: АС3 2.0 144 kbps - Русский профессиональный многоголосый закадровый (CP Digital)
2: АС3 2.0 144 kbps - Английский
Субтитры: Русский

General
Complete name : C:CREATE480outStargate.1994 (SD).m4v
Format : MPEG-4
Codec ID : M4V
File size : 1.80 GiB
Duration : 2h 9mn
Overall bit rate mode : Variable
Overall bit rate : 1 988 Kbps
Movie name : Звездные врата
Performer : Roland Emmerich
Genre : Sci-Fi & Fantasy
Recorded date : UTC 1994-10-28 07:00:00
Encoded date : UTC 2014-03-09 08:14:54
Tagged date : UTC 2014-03-09 19:17:46
Copyright : Y 1994 Le Studio Canal+ (U.S.). All Rights Reserved.
Cover : Yes
Comment : «It will take you a million light years from home. But will it bring you back?»
sonm : Stargate
desc : В 1928-м году в Египте археологи обнаружили гигантское каменное кольцо, покрытое загадочными иероглифами. Американские военные, на протяжении десятилетий бившиеся над разгадкой послания, привлекают для исследования египтолога доктора Дэниэла Джексона
ldes : В 1928-м году в Египте археологи обнаружили гигантское каменное кольцо, покрытое загадочными иероглифами. Американские военные, на протяжении десятилетий бившиеся над разгадкой послания, привлекают для исследования египтолога доктора Дэниэла Джексона (Джеймс Спэйдер) сторонника теории внеземного происхождения пирамид. Ему удаётся прочесть надпись. Навстречу неизведанному сквозь Звёздные Врата вместе с Джексоном отправляется отряд специального назначения под командованием полковника Джонатана ОНила (Курт Рассел). Звездные Врата переносят их за миллионы световых лет от Земли, на странную планету, в место, напоминающее Древний Египет: бескрайние пустыни, диковинные животные и рабы, поклоняющиеся богу солнца Ра (Джэй Дэвидсон). Чтобы найти путь домой и спасти человечество, пришельцам предстоит сразиться с армией последнего представителя могущественной инопланетной расы, узнавшего, что дверь на Землю может быть открыта вновь, спустя тысячелетия.
stik : 9
rtng : 0
cnID : 251188802
xid : Apple:vendor_id:1994-5594
iTunEXTC : mpaa|PG-13|300|

Video #1
ID : 1
Format : AVC
Format/Info : Advanced Video Codec
Format profile : Baseline@L3.0
Format settings, CABAC : No
Format settings, ReFrames : 2 frames
Codec ID : avc1
Codec ID/Info : Advanced Video Coding
Duration : 2h 9mn
Bit rate : 1 700 Kbps
Maximum bit rate : 8 191 Kbps
Width : 640 pixels
Height : 354 pixels
Display aspect ratio : 2.40:1
Frame rate mode : Constant
Frame rate : 23.976 fps
Color space : YUV
Chroma subsampling : 4:2:0
Bit depth : 8 bits
Scan type : Progressive
Bits/(Pixel*Frame) : 0.313
Stream size : 1.54 GiB (85%)
Title : Stargate _1994_
Writing library : x264 core 140 r2377+40 929f149 tMod [8-bit@4:2:0 X86_64]
Encoding settings : cabac=0 / ref=2 / deblock=1:-2:-2 / analyse=0x1:0x131 / me=umh / subme=7 / psy=1 / fade_compensate=1.00 / psy_rd=1.00:0.15 / mixed_ref=1 / me_range=32 / chroma_me=1 / trellis=2 / 8x8dct=0 / cqm=0 / deadzone=21,11 / fast_pskip=0 / chroma_qp_offset=-3 / threads=12 / lookahead_threads=2 / sliced_threads=0 / nr=0 / decimate=0 / interlaced=0 / bluray_compat=0 / constrained_intra=0 / fgo=0 / bframes=0 / weightp=0 / keyint=250 / keyint_min=23 / scenecut=40 / intra_refresh=0 / rc_lookahead=96 / rc=2pass / mbtree=1 / bitrate=1700 / ratetol=1.0 / qcomp=0.70 / qpmin=0:0:0 / qpmax=69:69:69 / qpstep=4 / cplxblur=20.0 / qblur=0.5 / vbv_maxrate=5000 / vbv_bufsize=5000 / nal_hrd=none / filler=0 / ip_ratio=1.35 / aq=4:0.90 / aq-sensitivity=10.00 / aq-factor=1.00:1.00:1.00 / aq2=0 / aq3=0
Language : English
Encoded date : UTC 2014-03-09 08:14:54
Tagged date : UTC 2014-03-09 08:15:40
Matrix coefficients : BT.709

Video #2
ID : 6
Format : JPEG
Codec ID : jpeg
Duration : 2h 9mn
Duration_LastFrame : -6s 381ms
Bit rate mode : Variable
Bit rate : 784 bps
Width : 640 pixels
Height : 266 pixels
Display aspect ratio : 2.40:1
Frame rate mode : Constant
Frame rate : 0.003 fps
Color space : YUV
Chroma subsampling : 4:2:0
Bit depth : 8 bits
Compression mode : Lossy
Bits/(Pixel*Frame) : 1.535
Stream size : 829 KiB (0%)
Language : English
Encoded date : UTC 2014-03-09 19:17:10
Tagged date : UTC 2014-03-09 19:17:11

Audio #1
ID : 2
Format : AAC
Format/Info : Advanced Audio Codec
Format profile : LC
Codec ID : 40
Duration : 2h 9mn
Bit rate mode : Variable
Bit rate : 144 Kbps
Maximum bit rate : 186 Kbps
Channel(s) : 2 channels
Channel positions : Front: L R
Sampling rate : 48.0 KHz
Compression mode : Lossy
Stream size : 133 MiB (7%)
Title : MVO CP Digital
Language : Russian
Encoded date : UTC 2014-03-09 08:08:35
Tagged date : UTC 2014-03-09 08:15:40

Audio #2
ID : 3
Format : AAC
Format/Info : Advanced Audio Codec
Format profile : LC
Codec ID : 40
Duration : 2h 9mn
Bit rate mode : Variable
Bit rate : 144 Kbps
Maximum bit rate : 184 Kbps
Channel(s) : 2 channels
Channel positions : Front: L R
Sampling rate : 48.0 KHz
Compression mode : Lossy
Stream size : 133 MiB (7%)
Title : Original
Language : English
Encoded date : UTC 2014-03-09 08:11:43
Tagged date : UTC 2014-03-09 08:15:40

Text
ID : 4
Format : Timed Text
Muxing mode : sbtl
Codec ID : tx3g
Duration : 2h 3mn
Bit rate mode : Variable
Bit rate : 46 bps
Stream size : 41.1 KiB (0%)
Title : Subtitle Russian
Language : Russian
Encoded date : UTC 2014-03-09 08:15:40
Tagged date : UTC 2014-03-09 08:15:40

Menu #1
00:00:00.000 : Chapter 1
00:05:00.000 : Chapter 2
00:10:00.000 : Chapter 3
00:15:00.000 : Chapter 4
00:20:00.000 : Chapter 5
00:25:00.000 : Chapter 6
00:30:00.000 : Chapter 7
00:35:00.000 : Chapter 8
00:40:00.000 : Chapter 9
00:45:00.000 : Chapter 10
00:50:00.000 : Chapter 11
00:55:00.000 : Chapter 12
01:00:00.000 : Chapter 13
01:05:00.000 : Chapter 14
01:10:00.000 : Chapter 15
01:15:00.000 : Chapter 16
01:20:00.000 : Chapter 17
01:25:00.000 : Chapter 18
01:30:00.000 : Chapter 19
01:35:00.000 : Chapter 20
01:40:00.000 : Chapter 21
01:45:00.000 : Chapter 22
01:50:00.000 : Chapter 23
01:55:00.000 : Chapter 24
02:00:00.000 : Chapter 25
02:05:00.000 : Chapter 26

Menu #2
ID : 5
Codec ID : text
Duration : 2h 9mn
Language : English
Encoded date : UTC 2014-03-09 19:17:05
Tagged date : UTC 2014-03-09 19:17:05
Bit rate mode : VBR
Duration_LastFrame : -6381

Sort Name: Stargate
XID: Apple:vendor_id:1994-5594
contentID: 251188802
Copyright: Y 1994 Le Studio Canal+ (U.S.). All Rights Reserved.
Screenwriters: Дин Девлин, Роланд Эммерих
Producers: Дин Девлин, Оливер Эберли, Джоэль Б. Майклс
Director: Роланд Эммерих
Cast: Курт Рассел, Джеймс Спэйдер, Алексис Крус, Вивека Линдфорс, Мили Авитал, Джон Дил, Леон Риппи, Карлос Лаучу, Джимон Хонсу, Эрик Авари // Kurt Russell (Colonel Jonathan O'Neil), James Spader (Dr. Daniel Jackson), Alexis Cruz (Skaara), Viveca Lindfors (Catherine), Mili Avital (Sha`uri), Leon Rippy (General West), John Diehl (Lt. Kawalsky), Carlos Lauchu (Anubis), Jaye Davidson (Ra), Djimon Hounsou (Horus), Erick Avari (Kasuf), French Stewart (Lieutenant Ferretti), Derek Webster (Brown), Gianin Loffler (Nabeh), Christopher John Fields (Freeman)
Studio: Canal+, Carolco Pictures Inc., MGM
Rating: 4
Long Deion: В 1928-м году в Египте археологи обнаружили гигантское каменное кольцо, покрытое загадочными иероглифами. Американские военные, на протяжении десятилетий бившиеся над разгадкой послания, привлекают для исследования египтолога доктора Дэниэла Джексона (Джеймс Спэйдер) сторонника теории внеземного происхождения пирамид. Ему удаётся прочесть надпись. Навстречу неизведанному сквозь Звёздные Врата вместе с Джексоном отправляется отряд специального назначения под командованием полковника Джонатана ОНила (Курт Рассел). Звездные Врата переносят их за миллионы световых лет от Земли, на странную планету, в место, напоминающее Древний Египет: бескрайние пустыни, диковинные животные и рабы, поклоняющиеся богу солнца Ра (Джэй Дэвидсон). Чтобы найти путь домой и спасти человечество, пришельцам предстоит сразиться с армией последнего представителя могущественной инопланетной расы, узнавшего, что дверь на Землю может быть открыта вновь, спустя тысячелетия.
Deion: В 1928-м году в Египте археологи обнаружили гигантское каменное кольцо, покрытое загадочными иероглифами. Американские военные, на протяжении десятилетий бившиеся над разгадкой послания, привлекают для исследования египтолога доктора Дэниэла Джексона
Release Date: 1994-10-28T07:00:00Z
Genre: Sci-Fi & Fantasy
Comments: «It will take you a million light years from home. But will it bring you back?»
Artist: Roland Emmerich
Name: Звездные врата

x264 [info]: frame I:5370 Avg QP:18.36 size: 18008
x264 [info]: frame P:181490 Avg QP:20.19 size: 8576
x264 [info]: mb I I16..4: 47.7% 0.0% 52.3%
x264 [info]: mb P I16..4: 2.9% 0.0% 2.7% P16..4: 51.8% 18.3% 9.6% 1.6% 0.8% skip:12.3%
x264 [info]: coded y,uvDC,uvAC intra: 48.7% 59.8% 26.4% inter: 42.9% 38.5% 11.6%
x264 [info]: i16 v,h,dc,p: 44% 15% 11% 30%
x264 [info]: i4 v,h,dc,ddl,ddr,vr,hd,vl,hu: 37% 10% 18% 6% 6% 8% 5% 7% 4%
x264 [info]: i8c dc,h,v,p: 57% 13% 24% 6%
x264 [info]: ref P L0: 75.9% 24.1%
x264 [info]: kb/s:1696.90



Скачать Звездные.врата.Stargate.(Роланд.Эммерих).[1994.фантастика.боевик.приключения.HDRip-AVC].[MVO]+[Sub].torrent без регистрации
Золото ЗОЛОТАЯ РАЗДАЧА! СКАЧАННОЕ НЕ ЗАСЧИТЫВАЕТСЯ! Золото
Дата: Зарегистрирован   [ Тип: внутренний ] Как тут cкачать?
MAGNET ссылка
MAGNET ссылка


Скачать .torrent

19 KB

Статус: проверено DHT
Скачан: торрент - 114 раз, раздача полностью - 26 раз
Размер: 1,8 GB
Оценка:  - (Голосов: 0)
Поблагодарили: 1
Поделиться ссылкой на эту раздачу с друзьями:
В контактеFacebookОдноклассникиTwitterLivejournalМой МирLiveinternet
 

 
Показать сообщения:    


Вы не можете начинать темы
Вы не можете отвечать на сообщения
Вы не можете редактировать свои сообщения
Вы не можете удалять свои сообщения
Вы не можете голосовать в опросах
Вы не можете прикреплять файлы к сообщениям
Вы можете скачивать файлы