Loading...
Error

Скачать Земля 2 / Earth 2 (сезон 1, серии 1-22 (22)) (Джо Наполитано, Джим Чарльстон, Джон Харрисон) [1994-1995, фантастика, приключения, DVDRip-AVC] MVO (PVRecords и BeeFilm, iDimo) + Rus Sub + Original торрент без регистрации

 
Статистика раздачи
Размер:  12,98 GB   |    Скачан:  239 раз
Сидов:  1  [  0 KB/s  ]  
 
Автор Сообщение

Shara

[] 

Земля 2 / Earth 2
Год выпуска: 1994-1995
Страна: США
Жанр: фантастика, приключения
Продолжительность: 22 х ~ 00:45:00
Перевод: Русский любительский многоголосый
(PVRecords+BeeFilm)(1-12 серии).
iDimo (13-22 серии)
Русские субтитры: Есть, отключаемые, VobSub+srt (notabenoid+sasha20072007)
Режиссёр: Джо Наполитано, Джим Чарльстон, Джон Харрисон
В ролях: Дебра Фарентино, Клэнси Браун, Салливан Уолкер, Джессика Стин, Ребекка Гэйхарт, John Gegenhuber, Джои Зиммерман, Дж. Мэдисон Райт, Антонио Сабато мл., Уолтер Норман
Описание: В 2192 большая часть человечества покинули Землю, чтобы жить на больших орбитальных космических станциях. Земля стала практически необитаемой, за исключением небольшого количества людей, проживающих все же на ней.
8-летний Улисс Адаир, сын Девон Адаир, заразился редкой смертельной болезнью, Синдромом, о которой не известно ни властям ни всему медицинскому сообществу. Была выдвинута теория, согласно которой это сугубо детское заболевание и вызвано отсутствием окружающей среды, сходной с Земной. Большинство детей, которые рождаются с этим заболеванием, живут не более девяти лет. Отчаянно пытаясь спасти своего сына, Девон собирает экспедицию, которая попытается приземлиться на планету, находящуюся в 22-х световых годах от Земли, для того, чтобы семьи с такими же детьми могли переселиться туда.
Двадцать два года спустя, корабль прибыл на планеу G889, но потерпел крушение при посадке совсем не на той стороне планеты, куда было запланировано приземление. Отдельные участники группы разбросаны по всей планете. И вот они начинают свой долгий и опасный путь к нужному месту по планете населенной удивиельными существами.

Релиз

Список серий:
01 First Contact - Первый контакт.Часть 1
02 First Contact - Первый контакт.Часть 2
03 The Man Who Fell To Earth - Человек, который упал на Землю
04 Life Lessons - Пять уроков
05 Promises, Promises - Обещания, обещания
06 A Memory Play - Игра воображения
07 Natural Born Grendlers - Прирожденные Грендлеры (торговцы)
08 Water - Вода
09 The Church of Morgan - Храм Моргана
10 The Enemy Within - Враг внутри
11 Sacrifice and Redemption - Жертва и выкуп
12 Moon Cross - Сочетание Лун или Парад Лун
13 Better Living Through Morganite, Part I - К лучшей жизни с Морганитом.Часть 1.
14 Better Living Through Morganite, Part II - К лучшей жизни с Морганитом.Часть 2.
15 Grendlers in the Mist - Грендлеры в тумане
16 The Greatest Love Story Never Told - Нерассказанная величайшая любовная история
17 Brave New Pacifica - Чудесная Новая Пасифика
18 After the Thaw - После оттаивания (оттепели)
19 The Boy Who Would be Terrian King - Мальчик, который станет Террианским королем
20 Survival of the Fittest - Естественный отбор
21 Flower Child - Дитя цветка
22 All About Eve - Все о Еве

Ссылка на предыдущие и альтернативные раздачи:
Сэмпл: http://multi-up.com/630924
Качество: DVDRip
Формат: MKV
Видео кодек: x264
Аудио кодек: AC3
Видео: х264, 720х544, 25к/с, crf=21-22, ~ 1100кб/с, 4х3
Аудио 1: Русский одноголосый (1-2 серии) (АС3 2сh 192кб/с)
Аудио 2: Русский любительский многоголосый, одноголосый (PVRecords+BeeFilm, iDimo) (АС3 2сh 192кб/с)
Аудио 3: Английский (АС3 2сh 192кб/с)
Аудио 4: Немецкий (АС3 2сh 192кб/с)
Субтитры 1: Русские VobSub
Субтитры 2: Русские srt
Субтитры 3: Английские VobSub
Субтитры 4: Английские srt
Субтитры 5: Польские srt
Озвучка 13-22 серий по заказу kosmoaelita.com
Нумерация серий дана согласно хронологии событий
Мой рип с макс. настройками кодера с оригинальных немецких ДВД9
Отличается от имеющейся на трекере раздаче намного лучшим качеством видео, содержит больше звук. дорожек и субтитров/
Сохранены чаптеры (главы), как на ориг-х ДВД.
Земля 2 - планета G889
Юли Улисс Адаир Ulysses - мальчик сын Девон
Девон Адаир (брюнетка) - мать Юли
Commander O'Neill -
Новая Пасифика New Pacifica
Море Антея - море у Новой Пасифики
Джеил -
доктор Джулия Хеллер (блондинка) - врач
Бейнс - негр
Бесс Мартин - жена Моргана (длинные вьющиеся волосы)
Морган Мартин - муж Бесс
Джон Дэнзигер - светлый кучерявый
Эле - его жена, лежащая в коме.
Тру Дэнзигер - дочка Джона Дэнзигера
Алонзо Солас Alonzo SoIace - пилот
Лидия - любовь Алонзо на базе Гарсония
Велман -
ЗЭД - киборг-убийца
ЗЕРО - робот
Ель Брайден Кроикс - андроид
рука-диагностер
Рейли -
Наблюдатель -
Франклин Беннет -
Террианцы Terrians - подземные жители
Грендлеры - чудища-торговцы
Катрина - старуха, сестра Шеппарда
Магус - женщина
Кемерон Коба - маленький чудик-абориген
Шеппард - любовник Девон из снов
Гейл -
межпространственный туннель
Модуль связи
A.T.V. - мал. вездеход (с тремя сзади батареями)
Rail - дюно-драгстер - средний вездеход (без батарей)
транс-ровер - большой вездеход
МекПро - ручное оружие
Общее
Уникальный идентификатор : 245707428526073159733285662825475751266 (0xB8D98787C922764D95E04697ADB83D62)
Полное имя : E:\Zemlja.2.(1-22.serii.iz.22).1994.x264.DVDRip\Zemlja.2.(11.seria.iz.22).Zhertva.Vykup.1994.x264.DVDRip.mkv
Формат : Matroska
Версия формата : Version 2
Размер файла : 456 Мбайт
Продолжительность : 43 м.
Общий поток : 1469 Кбит/сек
Название фильма : Earth 2 e10x22 Redemption (Жертва и выкуп) by sasha20072007, 2011
Дата кодирования : UTC 2012-01-14 20:00:54
Программа кодирования : mkvmerge v5.2.1 ('A Far Off Place') built on Jan 7 2012 21:56:27
Библиотека кодирования : libebml v1.2.3 + libmatroska v1.3.0
Видео
Идентификатор : 1
Формат : AVC
Формат/Информация : Advanced Video Codec
Профиль формата : High@L4.1
Параметр CABAC формата : Да
Параметр ReFrames формата : 8 кадров
Идентификатор кодека : V_MPEG4/ISO/AVC
Продолжительность : 43 м.
Битрейт : 1056 Кбит/сек
Ширина : 720 пикселей
Высота : 544 пикселя
Соотношение сторон : 4:3
Частота кадров : 25,000 кадров/сек
Цветовое пространство : YUV
Субдискретизация насыщенности : 4:2:0
Битовая глубина : 8 бит
Тип развёртки : Прогрессивная
Бит/(Пиксели*Кадры) : 0.108
Размер потока : 327 Мбайт (72%)
Заголовок : Redemption
Библиотека кодирования : x264 core 119 r2106 07efeb4
Настройки программы : cabac=1 / ref=8 / deblock=1:-3:-3 / analyse=0x3:0x133 / me=umh / subme=11 / psy=1 / psy_rd=1.00:0.25 / mixed_ref=1 / me_range=24 / chroma_me=1 / trellis=2 / 8x8dct=1 / cqm=0 / deadzone=6,6 / fast_pskip=1 / chroma_qp_offset=-4 / threads=6 / sliced_threads=0 / nr=0 / decimate=0 / interlaced=0 / bluray_compat=0 / constrained_intra=0 / bframes=8 / b_pyramid=2 / b_adapt=2 / b_bias=0 / direct=1 / weightb=1 / open_gop=0 / weightp=2 / keyint=210 / keyint_min=21 / scenecut=40 / intra_refresh=0 / rc_lookahead=60 / rc=crf / mbtree=1 / crf=22.0 / qcomp=0.80 / qpmin=0 / qpmax=69 / qpstep=4 / vbv_maxrate=50000 / vbv_bufsize=50000 / crf_max=0.0 / nal_hrd=none / ip_ratio=1.10 / aq=1:0.50
Язык : German
Аудио #1
Идентификатор : 2
Формат : AC-3
Формат/Информация : Audio Coding 3
Расширение режима : CM (complete main)
Идентификатор кодека : A_AC3
Продолжительность : 43 м.
Вид битрейта : Постоянный
Битрейт : 192 Кбит/сек
Каналы : 2 канала
Расположение каналов : Front: L R
Частота : 48,0 КГц
Битовая глубина : 16 бит
Метод сжатия : С потерями
Размер потока : 59,5 Мбайт (13%)
Язык : English
Аудио #2
Идентификатор : 3
Формат : AC-3
Формат/Информация : Audio Coding 3
Расширение режима : CM (complete main)
Идентификатор кодека : A_AC3
Продолжительность : 43 м.
Вид битрейта : Постоянный
Битрейт : 192 Кбит/сек
Каналы : 2 канала
Расположение каналов : Front: L R
Частота : 48,0 КГц
Битовая глубина : 16 бит
Метод сжатия : С потерями
Размер потока : 59,5 Мбайт (13%)
Язык : German
Текст #1
Идентификатор : 4
Формат : VobSub
Идентификатор кодека : S_VOBSUB
Идентификатор кодека/Информация : The same subtitle format used on DVDs
Заголовок : Русский (VobSub)
Язык : Russian
Текст #2
Идентификатор : 5
Формат : UTF-8
Идентификатор кодека : S_TEXT/UTF8
Идентификатор кодека/Информация : UTF-8 Plain Text
Язык : Russian
Текст #3
Идентификатор : 6
Формат : VobSub
Идентификатор кодека : S_VOBSUB
Идентификатор кодека/Информация : The same subtitle format used on DVDs
Заголовок : Английский (VobSub)
Язык : English
Текст #4
Идентификатор : 7
Формат : UTF-8
Идентификатор кодека : S_TEXT/UTF8
Идентификатор кодека/Информация : UTF-8 Plain Text
Язык : English
Текст #5
Идентификатор : 8
Формат : UTF-8
Идентификатор кодека : S_TEXT/UTF8
Идентификатор кодека/Информация : UTF-8 Plain Text
Язык : Polish
Меню
00:00:00.000 : en:01
00:05:00.233 : en:02
00:10:00.466 : en:03
00:15:10.933 : en:04
00:20:00.833 : en:05
00:25:00.333 : en:06
00:30:00.599 : en:07
00:35:00.266 : en:08
00:40:00.599 : en:09



Скачать Земля.2.Earth.2.(сезон.1.серии.1-22.(22)).(Джо.Наполитано.Джим.Чарльстон.Джон.Харрисон).[1994-1995.фантастика.приключения.DVDRip-AVC].MVO.(PVRecords.и.BeeFilm.iDimo).+.Rus.Sub.+.Original.torrent без регистрации
Золото ЗОЛОТАЯ РАЗДАЧА! СКАЧАННОЕ НЕ ЗАСЧИТЫВАЕТСЯ! Золото
Дата: Зарегистрирован   [ Тип: внутренний ] Как тут cкачать?
MAGNET ссылка
MAGNET ссылка


Скачать .torrent

68 KB

Статус: проверено DHT
Скачан: торрент - 239 раз, раздача полностью - 115 раз
Размер: 12,98 GB
Оценка:  - (Голосов: 0)
Поблагодарили: 3
Поделиться ссылкой на эту раздачу с друзьями:
В контактеFacebookОдноклассникиTwitterLivejournalМой МирLiveinternet
 

 
Показать сообщения:    


Вы не можете начинать темы
Вы не можете отвечать на сообщения
Вы не можете редактировать свои сообщения
Вы не можете удалять свои сообщения
Вы не можете голосовать в опросах
Вы не можете прикреплять файлы к сообщениям
Вы можете скачивать файлы