Loading...
Error

Скачать Комиссар X: Поцелуй и убей / Kommissar X: Jagd auf Unbekannt (Джанфранко Паролини) [1966, детектив, DVDRip] [AVO]+[Оригинал] торрент без регистрации

 
Статистика раздачи
Размер:  1,37 GB   |    Скачан:  100 раз
Сидов:  1  [  0 KB/s  ]  
 
Автор Сообщение

Marsianka

[] 



Страна: Германия (ФРГ), Италия, Югославия
Производство: Parnass, Metheus Film, Avala Film
Жанр: детектив
Год выпуска: 1966

Продолжительность: 01:28:06

Перевод: Авторский (Яковлев)

Оригинальная аудиодорожка: Английская

Режиссер: Джанфранко Паролини

В ролях: Тони Кендалл, Брэд Харрис, Мария Перши, Криста Линдер, Ингрид Лотариус, Никола Попович, Джузеппе Маттеи, Даниэль Годе, Оливера Катарина

Описание: Частный сыщик Джо Волкер и полицейский капитан Том Роланд расследуют убийство группы влиятельных бизнесменов. Причина убийств, как выяснилось, весьма весомая. Большое количество радиоактивных золотых слитков, которые нельзя использовать в течение пяти лет, но кто-то не хочет ждать! Первый фильм из серии экранизаций немецких приключенческих романов "Kommissar X".



Исходник: DVD5 R2

Тип релиза: DVDRip

Контейнер: AVI

Видео: XviD, 1836 Кбит/с, 704х304
Аудио: Русский, английский (АС3, 2 ch, 192 Кбит/с)
Общее
Полное имя : D:1АААКомиссар X Поцелуй и убей.avi
Формат : AVI
Формат/Информация : Audio Video Interleave
Размер файла : 1,37 Гбайт
Продолжительность : 1 ч. 28 м.
Общий поток : 2229 Кбит/сек
Программа кодирования : VirtualDubMod 1.5.10.2 (build 2540/release)
Библиотека кодирования : VirtualDubMod build 2540/release

Видео
Идентификатор : 0
Формат : MPEG-4 Visual
Профиль формата : Advanced Simple@L5
Параметр BVOP формата : 2
Параметр QPel формата : Нет
Параметр GMC формата : Без точки перехода
Параметр матрицы формата : Default (MPEG)
Режим смешивания : Сжатый битовый поток
Идентификатор кодека : XVID
Идентификатор кодека/Подсказка : XviD
Продолжительность : 1 ч. 28 м.
Битрейт : 1831 Кбит/сек
Ширина : 704 пикселя
Высота : 304 пикселя
Соотношение сторон : 2,35:1
Частота кадров : 23,976 кадра/сек
Цветовое пространство : YUV
Субдискретизация насыщенности : 4:2:0
Битовая глубина : 8 бит
Тип развёртки : Прогрессивная
Метод сжатия : С потерями
Бит/(Пиксели*Кадры) : 0.357
Размер потока : 1,13 Гбайт (82%)
Библиотека кодирования : XviD 1.2.1 (UTC 2008-12-04)

Аудио #1
Идентификатор : 1
Формат : AC-3
Формат/Информация : Audio Coding 3
Расширение режима : CM (complete main)
Параметр Endianness формата : Big
Идентификатор кодека : 2000
Продолжительность : 1 ч. 28 м.
Вид битрейта : Постоянный
Битрейт : 192 Кбит/сек
Каналы : 2 канала
Расположение каналов : Front: L R
Частота : 48,0 КГц
Битовая глубина : 16 бит
Метод сжатия : С потерями
Размер потока : 121 Мбайт (9%)
Выравнивание : Разделение по промежуткам
Продолжительность промежутка : 42 мс. (1,00 видеокадр)
Время предзагрузки промежутка : 500 мс.

Аудио #2
Идентификатор : 2
Формат : AC-3
Формат/Информация : Audio Coding 3
Расширение режима : CM (complete main)
Параметр Endianness формата : Big
Идентификатор кодека : 2000
Продолжительность : 1 ч. 28 м.
Вид битрейта : Постоянный
Битрейт : 192 Кбит/сек
Каналы : 2 канала
Расположение каналов : Front: L R
Частота : 48,0 КГц
Битовая глубина : 16 бит
Метод сжатия : С потерями
Размер потока : 121 Мбайт (9%)
Выравнивание : Разделение по промежуткам
Продолжительность промежутка : 42 мс. (1,00 видеокадр)
Время предзагрузки промежутка : 500 мс.
Релиз группа:

Автор рипа:



Скачать Комиссар.X.Поцелуй.и.убей.Kommissar.X.Jagd.auf.Unbekannt.(Джанфранко.Паролини).[1966.детектив.DVDRip].[AVO]+[Оригинал].torrent без регистрации
Золото ЗОЛОТАЯ РАЗДАЧА! СКАЧАННОЕ НЕ ЗАСЧИТЫВАЕТСЯ! Золото
Дата: Зарегистрирован   [ Тип: внутренний ] Как тут cкачать?
MAGNET ссылка
MAGNET ссылка


Скачать .torrent

14 KB

Статус: проверено DHT
Скачан: торрент - 100 раз, раздача полностью - 14 раз
Размер: 1,37 GB
Оценка:  - (Голосов: 0)
Поблагодарили: 1
Поделиться ссылкой на эту раздачу с друзьями:
В контактеFacebookОдноклассникиTwitterLivejournalМой МирLiveinternet
 

 
Показать сообщения:    


Вы не можете начинать темы
Вы не можете отвечать на сообщения
Вы не можете редактировать свои сообщения
Вы не можете удалять свои сообщения
Вы не можете голосовать в опросах
Вы не можете прикреплять файлы к сообщениям
Вы можете скачивать файлы