Loading...
Error

Скачать Мальчик в девочке / It's a Boy Girl Thing (Ник Харран) [2006, комедия, мелодрама, DVDRip] [Dub] торрент без регистрации

 
Статистика раздачи
Размер:  1,37 GB   |    Скачан:  152 раза
Сидов:  39  [  0 KB/s  ]   Личеров:  2  [  0 KB/s  ]  
 
Автор Сообщение

Marsianka

[] 

Информация о фильме
Название: Мальчик в девочке
Оригинальное название: It's a Boy Girl Thing
Страна: Канада, Великобритания
Жанр: комедия, мелодрама
Год выпуска: 2006
Продолжительность: 1:31:02
Перевод: Профессиональный (дублированный)
Cубтитры: нет]
Режиссер: Ник Харран / Nick Hurran
В ролях: Самира Армстронг, Кевин Зегерс, Шерри Миллер, Роберт Джой, Шарон Осборн, Мори Чайкин, Мфо Коахо, Дэн Уарри-Смит, Балаш Коос
Описание: Романтическая комедия, повествующая о двух соседях, девушке и парне, которые являются абсолютными противоположностями по жизни. Кроме того, они являются заклятыми врагами. Однако все меняется, когда однажды утром они обмениваются телами. Их реакция достаточно неожиданна, поначалу они пытаются нанести вред репутации своему новому образу, но наступает момент, когда заключив сделку между собой, они достигают небывалого успеха.



Автор рипа: dexter lex
Качество видео: DVDRip - Исходник DVD5
Формат видео: AVI
Видео: Xvid 704x304 25fps 1695kbps
Аудио: Dolby AC3 48000Hz 6ch 448kbps

Сэмпл
D:REALISE Y.T.Nits.boy.girl.thing.2006.DVDRip.704x304.dexter lex.avi
General
Complete name : D:REALISE Y.T.Nits.boy.girl.thing.2006.DVDRip.704x304.dexter lex.avi
Format : AVI
Format/Info : Audio Video Interleave
File size : 1.37 GiB
Duration : 1h 31mn
Overall bit rate : 2 151 Kbps
Writing application : VirtualDubMod 1.5.4.1 (build 2178/release)
Writing library : VirtualDubMod build 2178/release
Video #0
ID : 0
Format : MPEG-4 Visual
Format profile : AdvancedSimple@L5
Format settings, BVOP : Yes
Format settings, QPel : No
Format settings, GMC : No warppoints
Format settings, Matrix : Custom
Codec ID : XVID
Codec ID/Hint : XviD
Duration : 1h 31mn
Bit rate : 1 696 Kbps
Width : 704 pixels
Height : 304 pixels
Display aspect ratio : 2.35:1
Frame rate : 25.000 fps
Resolution : 24 bits
Colorimetry : 4:2:0
Scan type : Progressive
Bits/(Pixel*Frame) : 0.317
Stream size : 1.08 GiB (79%)
Writing library : XviD 1.1.2 (UTC 2006-11-01)
Audio #1
ID : 1
Format : AC-3
Format/Info : Audio Coding 3
Codec ID : 2000
Duration : 1h 31mn
Bit rate mode : Constant
Bit rate : 448 Kbps
Channel(s) : 6 channels
Channel positions : Front: L C R, Surround: L R, LFE
Sampling rate : 48.0 KHz
Stream size : 292 MiB (21%)
Alignment : Split accross interleaves
Interleave, duration : 96 ms (2.40 video frames)
Interleave, preload duration : 96 ms
Language : Russian



Скачать Мальчик.в.девочке.It's.a.Boy.Girl.Thing.(Ник.Харран).[2006.комедия.мелодрама.DVDRip].[Dub].torrent без регистрации
Золото ЗОЛОТАЯ РАЗДАЧА! СКАЧАННОЕ НЕ ЗАСЧИТЫВАЕТСЯ! Золото
Дата: Зарегистрирован   [ Тип: внешний ] Как тут cкачать?
MAGNET ссылка
MAGNET ссылка


Скачать .torrent

14 KB

Статус: проверено DHT
Скачан: торрент - 152 раз, раздача полностью - 94 раз
Размер: 1,37 GB
Оценка:  5 (Голосов: 2)
Поблагодарили: 3
Поделиться ссылкой на эту раздачу с друзьями:
В контактеFacebookОдноклассникиTwitterLivejournalМой МирLiveinternet
 

 
Показать сообщения:    


Вы не можете начинать темы
Вы не можете отвечать на сообщения
Вы не можете редактировать свои сообщения
Вы не можете удалять свои сообщения
Вы не можете голосовать в опросах
Вы не можете прикреплять файлы к сообщениям
Вы можете скачивать файлы