Loading...
Error

Скачать Когда-то были воинами / Once Were Warriors (Ли Тамахори / Lee Tamahori) [1994 г, драма, криминал, DVDRip] [AVO] (Л. Володарский) + [SUB] (Rus, Eng) торрент без регистрации

 
Статистика раздачи
Размер:  1,19 GB   |    Скачан:  104 раза
Сидов:  1  [  0 KB/s  ]  
 
Автор Сообщение

leon030982

[] 

Когда-то они были воинами / Once Were Warriors
---- Единственный шанс для ее будущего - принять силу своего прошлого----


Год выпуска: 1994
Страна: Новая Зеландия
Жанр: драма, криминал
Продолжительность: 01:38:28
Перевод: Авторский (одноголосный, закадровый) [Л.Володарский]

Субтитры: русские, английские (отдельно в папке)

Режиссер: Ли Тамахори / Lee Tamahori

В ролях: Рена Оуэн / Rena Owen, Темуера Моррисон / Temuera Morrison, Мамаенгароа Керр-Белл / Mamaengaroa Kerr-Bell, Шэннон Уильямс / Shannon Williams, Таунгароа Эмиль / Taungaroa Emile, Джулиэн Араханга / Julian Arahanga

Описание: Семья выходцев из племени маори пытается выжить в урбанистическом кошмаре, где царят насилие, преступность, самые разные человеческие пороки. Бет, дочь вождя аборигенов, уведённая с земли предков 18 лет назад своим мужем Джейком, по мере сил противостоит пьянству, беспутству и жестокости опустившегося супруга, желая запоздало уберечь сыновей и дочь от дурного влияния улицы…



Качество: DVDRip
Формат: AVI
Видео кодек: XviD
Аудио кодек: AC3
Видео: 704x432 (1.63:1), 25 fps, XviD build 45 ~1530 kbps avg, 0.20 bit/pixel
Аудио: 48 kHz, AC3 Dolby Digital, 2/0 (L,R) ch, ~192.00 kbps avg
DVDRip от dooctoor ---- Спасибо!
За авторскую дорожку Л. Володарского благодарим budulai-8 !
General
Complete name : E:\INTERNET\Were Warriors\Once Were Warriors.1994.DVDRip.[AVO] (L.Volodarskiy).avi
Format : AVI
Format/Info : Audio Video Interleave
File size : 1.19 GiB
Duration : 1h 38mn
Overall bit rate : 1 732 Kbps
Writing application : VirtualDubMod 1.5.10.3 (build 2550/release)
Writing library : VirtualDubMod build 2550/release

Video
ID : 0
Format : MPEG-4 Visual
Format profile : Advanced Simple@L5
Format settings, BVOP : 2
Format settings, QPel : No
Format settings, GMC : No warppoints
Format settings, Matrix : Default (MPEG)
Codec ID : DX50
Codec ID/Hint : DivX 5
Duration : 1h 38mn
Bit rate : 1 531 Kbps
Width : 704 pixels
Height : 432 pixels
Display aspect ratio : 1.630
Frame rate : 25.000 fps
Color space : YUV
Chroma subsampling : 4:2:0
Bit depth : 8 bits
Scan type : Progressive
Compression mode : Lossy
Bits/(Pixel*Frame) : 0.201
Stream size : 1.05 GiB (88%)
Writing library : XviD 1.2.0.dev45 (UTC 2006-07-10)

Audio
ID : 1
Format : AC-3
Format/Info : Audio Coding 3
Mode extension : CM (complete main)
Codec ID : 2000
Duration : 1h 38mn
Bit rate mode : Constant
Bit rate : 192 Kbps
Channel(s) : 2 channels
Channel positions : Front: L R
Sampling rate : 48.0 KHz
Bit depth : 16 bits
Compression mode : Lossy
Stream size : 135 MiB (11%)
Alignment : Split accross interleaves
Interleave, duration : 40 ms (1.00 video frame)
Interleave, preload duration : 500 ms

Релиз сугубо для ценителей авторских переводов и поклонников Леонида Володарского !



Скачать Когда-то.были.воинами.Once.Were.Warriors.(Ли.Тамахори.Lee.Tamahori).[1994.г.драма.криминал.DVDRip].[AVO].(Л.Володарский).+.[SUB].(Rus.Eng).torrent без регистрации
Золото ЗОЛОТАЯ РАЗДАЧА! СКАЧАННОЕ НЕ ЗАСЧИТЫВАЕТСЯ! Золото
Дата: Зарегистрирован   [ Тип: внутренний ] Как тут cкачать?
MAGNET ссылка
MAGNET ссылка


Скачать .torrent

13 KB

Статус: проверено DHT
Скачан: торрент - 104 раз, раздача полностью - 3 раз
Размер: 1,19 GB
Оценка:  5 (Голосов: 1)
Поблагодарили: 1
Поделиться ссылкой на эту раздачу с друзьями:
В контактеFacebookОдноклассникиTwitterLivejournalМой МирLiveinternet
 

 
Показать сообщения:    


Вы не можете начинать темы
Вы не можете отвечать на сообщения
Вы не можете редактировать свои сообщения
Вы не можете удалять свои сообщения
Вы не можете голосовать в опросах
Вы не можете прикреплять файлы к сообщениям
Вы можете скачивать файлы