Loading...
Error

Скачать Сеть / The Net (Ирвин Уинклер) [1995, боевик, триллер, драма, криминал, детектив, BDRip-AVC] [Dub]+[MVO]x3+[AVO]x2+[Sub]x5 торрент без регистрации

 
Статистика раздачи
Размер:  3,73 GB   |    Скачан:  131 раз
Сидов:  1  [  0 KB/s  ]  
 
Автор Сообщение

Marsianka

[] 

Сеть
| The Net |


Информация о фильме
Название: Сеть
Оригинальное название: The Net
Год выхода: 1995
Жанр: боевик, триллер, драма, криминал, детектив
Режиссер: Ирвин Уинклер
В ролях: Сандра Баллок, Джереми Нортэм, Дэннис Миллер, Дайан Бэйкер, Венди Джизел, Кен Ховард, Рэй МакКиннон, Дэниэл Шорр, Л. Скотт Колдуэлл, Роберт Госсетт

О фильме:
Как и все мы, Анжела Беннет живет в век информации. Все аспекты ее существования переведены в цифры и занесены в различные компьютерные базы данных: личный идентификационный номер, номер банковского счета, номер страхового свидетельства, номер водительского удостоверения, сведения об отсутствии судимости. Работа Анжелы тоже связана с компьютерами она программист. Существование Анжелы Беннет полностью компьютеризованно. Она не придает этому значения, но однажды ее личность стирают! Гуляя по компьютерной сети, Анжела случайно перебегает дорогу преторианцам. Преторианцами называют себя члены организованной группы хакеров, на счету которых взломы правительственных систем безопасности, биржевые крахи, авиакатастрофы и убийства, совершенные с использованием только одного оружия всемирной сети интернет. Анжела становится следующей жертвой в списке хакеров. Они стирают ее личность и вписывают в биографию Анжелы новое имя и преступное прошлое. Согласно сфабрикованным данным, Анжела опасная преступница, которая находится в розыске. Она должна найти в себе силы побороть злых компьютерных гениев.



Страна: США
Студия: Columbia Pictures Corporation, Winkler Films
Продолжительность: 01:54:18
Перевод: Дублированный, профессиональный многоголосый, авторский

Файл
Кодек: h.264
Качество: BDRip-AVC
Видео: 2267 Кбит/c, 1024x554, 23.976 кадр/с
1: Русский (AC3, 6 ch, 384 Кбит/с) Дублированный
2: Английский (АС3, 6 ch, 384 Кбит/с)
Отдельно:
3: Русский (AC3, 6 ch, 384 Кбит/с) Профессиональный многоголосый [НТВ]
4: Русский (AC3, 6 ch, 384 Кбит/с) Профессиональный многоголосый [d2Lab]
5: Русский (AC3, 6 ch, 384 Кбит/с) Авторский [Юрий Живов]
6: Русский (AC3, 6 ch, 384 Кбит/с) Авторский [Петр Карцев]
7: Украинский (AC3, 1 ch, 96 Кбит/с) Профессиональный многоголосый [К1]

Субтитры:
1: Русские
2: Украинские
3: Английские
4: Английские [SDH]
5: Английские [SDH, цветные]

--------------------------------------------------------------------------
x264 [info]: frame I:1194 Avg QP:16.19 size:105158
x264 [info]: frame P:38616 Avg QP:19.28 size: 27907
x264 [info]: frame B:124638 Avg QP:20.90 size: 5941
--------------------------------------------------------------------------

Полное имя : The.Net.1995.x264.BDRip-AVC.0ptimus.mkv
Формат : Matroska
Версия формата : Version 2
Размер файла : 2,43 Гбайт
Продолжительность : 1 ч. 54 м.
Общий поток : 3038 Кбит/сек
Название фильма : Сеть | The Net [1995] -= BDRip (AVC) by 0ptimus=-
Дата кодирования : UTC 2014-03-09 13:38:32
Программа кодирования : mkvmerge v6.6.0 ('The Edge Of The In Between') built on Dec 1 2013 17:55:00
Библиотека кодирования : libebml v1.3.0 + libmatroska v1.4.1

Видео
Идентификатор : 1
Формат : AVC
Формат/Информация : Advanced Video Codec
Профиль формата : High@L4.1
Параметр CABAC формата : Да
Параметр ReFrames формата : 9 кадров
Идентификатор кодека : V_MPEG4/ISO/AVC
Продолжительность : 1 ч. 54 м.
Битрейт : 2267 Кбит/сек
Ширина : 1024 пикселя
Высота : 554 пикселя
Соотношение сторон : 1,85:1
Режим частоты кадров : Постоянный
Частота кадров : 23,976 кадра/сек
Цветовое пространство : YUV
Субдискретизация насыщенности : 4:2:0
Битовая глубина : 8 бит
Тип развёртки : Прогрессивная
Бит/(Пиксели*Кадры) : 0.167
Размер потока : 1,76 Гбайт (73%)
Заголовок : Rip by 0ptimus
Библиотека кодирования : x264 core 133 r2334 a3ac64b
Настройки программы : cabac=1 / ref=9 / deblock=1:-3:-3 / analyse=0x3:0x113 / me=umh / subme=11 / psy=1 / psy_rd=1.00:0.20 / mixed_ref=1 / me_range=48 / chroma_me=1 / trellis=2 / 8x8dct=1 / cqm=0 / deadzone=21,11 / fast_pskip=0 / chroma_qp_offset=-3 / threads=4 / lookahead_threads=1 / sliced_threads=0 / nr=0 / decimate=0 / interlaced=0 / bluray_compat=0 / constrained_intra=0 / bframes=11 / b_pyramid=2 / b_adapt=2 / b_bias=0 / direct=3 / weightb=1 / open_gop=0 / weightp=2 / keyint=240 / keyint_min=23 / scenecut=40 / intra_refresh=0 / rc_lookahead=40 / rc=2pass / mbtree=0 / bitrate=2267 / ratetol=1.0 / qcomp=0.60 / qpmin=0 / qpmax=69 / qpstep=4 / cplxblur=20.0 / qblur=0.5 / vbv_maxrate=50000 / vbv_bufsize=50000 / nal_hrd=none / ip_ratio=1.40 / pb_ratio=1.30 / aq=1:1.00
Язык : English
Default : Да
Forced : Да

Аудио #1
Идентификатор : 2
Формат : AC-3
Формат/Информация : Audio Coding 3
Расширение режима : CM (complete main)
Параметр Endianness формата : Big
Идентификатор кодека : A_AC3
Продолжительность : 1 ч. 54 м.
Вид битрейта : Постоянный
Битрейт : 384 Кбит/сек
Каналы : 6 каналов
Расположение каналов : Front: L C R, Side: L R, LFE
Частота : 48,0 КГц
Битовая глубина : 16 бит
Метод сжатия : С потерями
Размер потока : 314 Мбайт (13%)
Заголовок : Дублированный AC3 5.1 @ 384 kbps
Язык : Russian
Default : Да
Forced : Да

Аудио #2
Идентификатор : 3
Формат : AC-3
Формат/Информация : Audio Coding 3
Расширение режима : CM (complete main)
Параметр Endianness формата : Big
Идентификатор кодека : A_AC3
Продолжительность : 1 ч. 54 м.
Вид битрейта : Постоянный
Битрейт : 384 Кбит/сек
Каналы : 6 каналов
Расположение каналов : Front: L C R, Side: L R, LFE
Частота : 48,0 КГц
Битовая глубина : 16 бит
Метод сжатия : С потерями
Размер потока : 314 Мбайт (13%)
Заголовок : AC3 5.1 @ 384 kbps
Язык : English
Default : Нет
Forced : Нет

Текст #1
Идентификатор : 4
Формат : UTF-8
Идентификатор кодека : S_TEXT/UTF8
Идентификатор кодека/Информация : UTF-8 Plain Text
Язык : Russian
Default : Нет
Forced : Нет

Текст #2
Идентификатор : 5
Формат : UTF-8
Идентификатор кодека : S_TEXT/UTF8
Идентификатор кодека/Информация : UTF-8 Plain Text
Язык : Ukrainian
Default : Нет
Forced : Нет

Текст #3
Идентификатор : 6
Формат : UTF-8
Идентификатор кодека : S_TEXT/UTF8
Идентификатор кодека/Информация : UTF-8 Plain Text
Язык : English
Default : Нет
Forced : Нет

Текст #4
Идентификатор : 7
Формат : UTF-8
Идентификатор кодека : S_TEXT/UTF8
Идентификатор кодека/Информация : UTF-8 Plain Text
Заголовок : SDH
Язык : English
Default : Нет
Forced : Нет

Текст #5
Идентификатор : 8
Формат : UTF-8
Идентификатор кодека : S_TEXT/UTF8
Идентификатор кодека/Информация : UTF-8 Plain Text
Заголовок : SDH, colored
Язык : English
Default : Нет
Forced : Нет

Меню
00:00:00.000 : en:Introduction
00:10:18.200 : en:Start
00:18:36.824 : en:Angela Bennett
00:27:31.691 : en:Cyber Chat
00:36:35.693 : en:Visiting Mom
00:40:55.911 : en:Weirdness Here!! Call Asap Dale
00:49:35.430 : en:Crash Landing
00:57:19.644 : en:Calling Russ Melbourne
01:06:30.695 : en:At LAX
01:13:07.216 : en:Jack Devlin
01:19:37.814 : en:Gibsons and Breakfast at Tiffany's
01:25:10.730 : en:A Romantic Dinner For Two
01:30:20.039 : en:Purse Thief
01:35:51.203 : en:On Jack's Boat
01:39:37.388 : en:Risks and Relationships
01:45:06.300 : en:Time To Make the World Safe For Democracy
Релиз от:



Скачать Сеть.The.Net.(Ирвин.Уинклер).[1995.боевик.триллер.драма.криминал.детектив.BDRip-AVC].[Dub]+[MVO]x3+[AVO]x2+[Sub]x5.torrent без регистрации
Золото ЗОЛОТАЯ РАЗДАЧА! СКАЧАННОЕ НЕ ЗАСЧИТЫВАЕТСЯ! Золото
Дата: Зарегистрирован   [ Тип: внутренний ] Как тут cкачать?
MAGNET ссылка
MAGNET ссылка


Скачать .torrent

39 KB

Статус: проверено DHT
Скачан: торрент - 131 раз, раздача полностью - 2 раз
Размер: 3,73 GB
Оценка:  - (Голосов: 0)
Поблагодарили: 1
Поделиться ссылкой на эту раздачу с друзьями:
В контактеFacebookОдноклассникиTwitterLivejournalМой МирLiveinternet
 

 
Показать сообщения:    


Вы не можете начинать темы
Вы не можете отвечать на сообщения
Вы не можете редактировать свои сообщения
Вы не можете удалять свои сообщения
Вы не можете голосовать в опросах
Вы не можете прикреплять файлы к сообщениям
Вы можете скачивать файлы