Loading...
Error

Скачать Майор Пэйн / Major Payne (Ник Касл) [1995, комедия, HDTVRip-AVC] [MVO] торрент без регистрации

 
Статистика раздачи
Размер:  1,26 GB   |    Скачан:  144 раза
Сидов:  1  [  0 KB/s  ]  
 
Автор Сообщение

Marsianka

[] 

Майор Пэйн / Major Payne (1995) HDTVRip-AVC | iPhone | P


Название: Майор Пэйн
Оригинальное название: Major Payne
Год выхода: 1995
Жанр: комедия
Режиссер: Ник Касл
В ролях: Дэймон Уайанс, Майкл Айронсайд, Скотт Бигелоу, Йода Блэйр, Орландо Браун, Пейтон Чессон-Фол, Стивен Коулмэн, Марк Конуэй, Дэвид ДиХарт, Джошуа Тодд Дивели

О фильме:
Майору никак не присвоят звание полковника по одной причине - он умеет только убивать, ни на что другое он просто не способен. Его отправляют в отставку. Работа в полиции ему не подходит, и наш герой умирает от скуки в одном из номеров отеля. Неожиданно он получает предложение стать инструктором по военной подготовке в военном учебном заведении. О том, как сложатся отношения "жестокосердного солдафона" с юными подопечными и одной весьма привлекательной преподавательницей рассказывает эта веселая комедия, полная забавных шуток и смешных ситуаций.



Страна: США
Студия: Universal Pictures, Wife 'n' Kids
Продолжительность: 01:32:56
Перевод: Русский профессиональный многоголосый закадровый

Файл
Кодек: H.264
Качество: HDTVRip-AVC 480p
Видео: 640x480@852x480 (16:9) at 25.000 fps, AVC at 1800 kbps
1: АС3 2.0 136 kbps - Русский профессиональный многоголосый закадровый
Субтитры: Отсутствуют

General
Complete name : C:CREATEx264modoutMajor Payne.1995 (SD).m4v
Format : MPEG-4
Codec ID : M4V
File size : 1.26 GiB
Duration : 1h 32mn
Overall bit rate mode : Variable
Overall bit rate : 1 938 Kbps
Movie name : Майор Пэйн
Performer : Nick Castle
Genre : Crime
Recorded date : UTC 1995-03-24 08:00:00
Encoded date : UTC 2014-03-11 17:38:48
Tagged date : UTC 2014-03-11 18:04:07
Copyright : Universal Pictures, Wife 'n' Kids
Cover : Yes
Comment : «He's looking for a few good men... or a few guys old enough to shave»
sonm : Major Payne
desc : Майору никак не присвоят звание полковника по одной причине - он умеет только убивать, ни на что другое он просто не способен. Его отправляют в отставку.
ldes : Майору никак не присвоят звание полковника по одной причине - он умеет только убивать, ни на что другое он просто не способен. Его отправляют в отставку. Работа в полиции ему не подходит, и наш герой умирает от скуки в одном из номеров отеля. Неожиданно он получает предложение стать инструктором по военной подготовке в военном учебном заведении. О том, как сложатся отношения "жестокосердного солдафона" с юными подопечными и одной весьма привлекательной преподавательницей рассказывает эта веселая комедия, полная забавных шуток и смешных ситуаций.
stik : 9
rtng : 0
cnID : 353949071
xid : Apple:vendor_id:1995-21503
iTunEXTC : mpaa|PG-13|300|

Video #1
ID : 1
Format : AVC
Format/Info : Advanced Video Codec
Format profile : Baseline@L3.0
Format settings, CABAC : No
Format settings, ReFrames : 2 frames
Codec ID : avc1
Codec ID/Info : Advanced Video Coding
Duration : 1h 32mn
Bit rate : 1 800 Kbps
Maximum bit rate : 6 939 Kbps
Width : 640 pixels
Height : 480 pixels
Display aspect ratio : 16:9
Frame rate mode : Constant
Frame rate : 25.000 fps
Color space : YUV
Chroma subsampling : 4:2:0
Bit depth : 8 bits
Scan type : Progressive
Bits/(Pixel*Frame) : 0.234
Stream size : 1.17 GiB (93%)
Title : Major Payne _1995_
Writing library : x264 core 140 r2377+40 929f149 tMod [8-bit@4:2:0 X86_64]
Encoding settings : cabac=0 / ref=2 / deblock=1:-2:-2 / analyse=0x1:0x131 / me=umh / subme=7 / psy=1 / fade_compensate=1.00 / psy_rd=1.00:0.10 / mixed_ref=1 / me_range=32 / chroma_me=1 / trellis=2 / 8x8dct=0 / cqm=0 / deadzone=21,11 / fast_pskip=0 / chroma_qp_offset=-3 / threads=12 / lookahead_threads=2 / sliced_threads=0 / nr=0 / decimate=0 / interlaced=0 / bluray_compat=0 / constrained_intra=0 / fgo=0 / bframes=0 / weightp=0 / keyint=250 / keyint_min=23 / scenecut=40 / intra_refresh=0 / rc_lookahead=80 / rc=2pass / mbtree=1 / bitrate=1800 / ratetol=1.0 / qcomp=0.60 / qpmin=0:0:0 / qpmax=69:69:69 / qpstep=4 / cplxblur=20.0 / qblur=0.5 / vbv_maxrate=5000 / vbv_bufsize=5000 / nal_hrd=none / filler=0 / ip_ratio=1.35 / aq=4:0.90 / aq-sensitivity=10.00 / aq-factor=1.00:1.00:1.00 / aq2=0 / aq3=0
Language : English
Encoded date : UTC 2014-03-11 17:38:48
Tagged date : UTC 2014-03-11 17:39:08
Matrix coefficients : BT.709

Video #2
ID : 4
Format : JPEG
Codec ID : jpeg
Duration : 1h 32mn
Duration_LastFrame : -7mn 3s
Bit rate mode : Variable
Bit rate : 858 bps
Width : 640 pixels
Height : 360 pixels
Display aspect ratio : 16:9
Frame rate mode : Constant
Frame rate : 0.002 fps
Color space : YUV
Chroma subsampling : 4:2:0
Bit depth : 8 bits
Compression mode : Lossy
Bits/(Pixel*Frame) : 1.862
Stream size : 524 KiB (0%)
Language : English
Encoded date : UTC 2014-03-11 18:04:04
Tagged date : UTC 2014-03-11 18:04:04

Audio
ID : 2
Format : AAC
Format/Info : Advanced Audio Codec
Format profile : LC
Codec ID : 40
Duration : 1h 32mn
Bit rate mode : Variable
Bit rate : 137 Kbps
Maximum bit rate : 184 Kbps
Channel(s) : 2 channels
Channel positions : Front: L R
Sampling rate : 48.0 KHz
Compression mode : Lossy
Stream size : 90.9 MiB (7%)
Title : Russian MVO
Language : Russian
Encoded date : UTC 2014-03-11 17:37:11
Tagged date : UTC 2014-03-11 17:39:08

Menu #1
00:00:00.000 : Chapter 1
00:10:00.000 : Chapter 2
00:20:00.000 : Chapter 3
00:30:00.000 : Chapter 4
00:40:00.000 : Chapter 5
00:50:00.000 : Chapter 6
01:00:00.000 : Chapter 7
01:10:00.000 : Chapter 8
01:20:00.000 : Chapter 9
01:30:00.000 : Chapter 10

Menu #2
ID : 3
Codec ID : text
Duration : 1h 32mn
Language : English
Encoded date : UTC 2014-03-11 18:04:01
Tagged date : UTC 2014-03-11 18:04:01
Bit rate mode : VBR
Duration_LastFrame : -423960

Sort Name: Major Payne
XID: Apple:vendor_id:1995-21503
contentID: 353949071
Copyright: Universal Pictures, Wife 'n' Kids
Screenwriters: Уильям Робертс, Ричард Алан Симмонс, Дин Лори
Producers: Эрик Л. Голд, Трэйси Карнесс, Майкл И. Рахмил
Director: Ник Касл
Cast: Дэймон Уайанс, Майкл Айронсайд, Скотт Бигелоу, Йода Блэйр, Орландо Браун, Пейтон Чессон-Фол, Стивен Коулмэн, Марк Конуэй, Дэвид ДиХарт, Джошуа Тодд Дивели
Studio: Universal Pictures, Wife 'n' Kids
Rating: 4
Long Deion: Майору никак не присвоят звание полковника по одной причине - он умеет только убивать, ни на что другое он просто не способен. Его отправляют в отставку. Работа в полиции ему не подходит, и наш герой умирает от скуки в одном из номеров отеля. Неожиданно он получает предложение стать инструктором по военной подготовке в военном учебном заведении. О том, как сложатся отношения "жестокосердного солдафона" с юными подопечными и одной весьма привлекательной преподавательницей рассказывает эта веселая комедия, полная забавных шуток и смешных ситуаций.
Deion: Майору никак не присвоят звание полковника по одной причине - он умеет только убивать, ни на что другое он просто не способен. Его отправляют в отставку.
Release Date: 1995-03-24T08:00:00Z
Genre: Crime
Comments: «He's looking for a few good men... or a few guys old enough to shave»
Artist: Nick Castle
Name: Майор Пэйн

x264 [info]: frame I:1293 Avg QP:19.64 size: 36223
x264 [info]: frame P:138108 Avg QP:22.00 size: 8735
x264 [info]: mb I I16..4: 26.0% 0.0% 74.0%
x264 [info]: mb P I16..4: 1.2% 0.0% 1.5% P16..4: 58.7% 15.9% 8.6% 1.1% 0.5% skip:12.4%
x264 [info]: coded y,uvDC,uvAC intra: 59.7% 74.8% 35.6% inter: 38.9% 37.9% 7.7%
x264 [info]: i16 v,h,dc,p: 44% 14% 9% 33%
x264 [info]: i4 v,h,dc,ddl,ddr,vr,hd,vl,hu: 31% 13% 15% 6% 7% 9% 6% 8% 4%
x264 [info]: i8c dc,h,v,p: 53% 14% 26% 8%
x264 [info]: ref P L0: 76.6% 23.4%
x264 [info]: kb/s:1797.98



Скачать Майор.Пэйн.Major.Payne.(Ник.Касл).[1995.комедия.HDTVRip-AVC].[MVO].torrent без регистрации
Золото ЗОЛОТАЯ РАЗДАЧА! СКАЧАННОЕ НЕ ЗАСЧИТЫВАЕТСЯ! Золото
Дата: Зарегистрирован   [ Тип: внутренний ] Как тут cкачать?
MAGNET ссылка
MAGNET ссылка


Скачать .torrent

13 KB

Статус: проверено DHT
Скачан: торрент - 144 раз, раздача полностью - 13 раз
Размер: 1,26 GB
Оценка:  - (Голосов: 0)
Поблагодарили: 1
Поделиться ссылкой на эту раздачу с друзьями:
В контактеFacebookОдноклассникиTwitterLivejournalМой МирLiveinternet
 

 
Показать сообщения:    


Вы не можете начинать темы
Вы не можете отвечать на сообщения
Вы не можете редактировать свои сообщения
Вы не можете удалять свои сообщения
Вы не можете голосовать в опросах
Вы не можете прикреплять файлы к сообщениям
Вы можете скачивать файлы