Loading...
Error

Скачать Кара небесная / Подмена / Switch (Блейк Эдвардс) [1991, фэнтези, комедия, криминал, драма, DVDRip] [Dub]+[MVO]x3+[AVO]+[Оригинал] торрент без регистрации

 
Статистика раздачи
Размер:  2,31 GB   |    Скачан:  98 раз
Сидов:  1  [  0 KB/s  ]  
 
Автор Сообщение

Marsianka

[] 

Информация о фильме
Название: Кара небесная (Подмена)
Оригинальное название: Switch
Год выхода: 1991
Жанр: фэнтези, комедия, криминал, драма
Режиссер: Блейк Эдвардс
В ролях: Эллен Баркин, Джимми Смитс, ДжоБет Уильямс, Лоррейн Бракко, Тони Робертс, Перри Кинг, Брюс Пэйн, Лизетт Энтони, Виктория Махони, Бэзил Хоффман...

О фильме:
Стив Брукс, сердцеед и соблазнитель женщин, отправляясь на очередную вечеринку, не знал, что погибнет от рук своих любимиц и на следующий день превратится в эффектную блондинку. Теперь, чтобы не попасть в Ад, он должен понравиться хотя бы одному человеку точнее, хотя бы одной женщине.



Страна: США
Студия: Beco Films, Cinema Plus, Home Box Office (HBO)
Продолжительность: 1:43:09
Профессиональный (дублированный) Ленфильм, профессиональный (многоголосый закадровый) Нота, профессиональный (многоголосый закадровый) НТВ+, профессиональный (многоголосый закадровый) ОРТ, авторский (одноголосый) Михалёв А.М.
Оригинальная аудио-дорожка: Английская
Файл
Кодек: XviD
Качество: DVDRip
Видео: 720x312 (2.31:1), 23.976 fps, 2035 kbps avg, 0.38 bit/pixel
Аудио #1: Русский, AC3 Dolby Digital, 2/0 (L,R) ch, 192 kbps, 48 kHz - DUB, Ленфильм
Аудио #2: Русский, AC3 Dolby Digital, 2/0 (L,R) ch, 192 kbps, 48 kHz - MVO, Нота
Аудио #3: Русский, AC3 Dolby Digital, 2/0 (L,R) ch, 192 kbps, 48 kHz - MVO, НТВ+
Аудио #4: Русский, AC3 Dolby Digital, 2/0 (L,R) ch, 192 kbps, 48 kHz - MVO, ОРТ
Аудио #5: Русский, AC3 Dolby Digital, 2/0 (L,R) ch, 192 kbps, 48 kHz - АVO, Михалёв А.М.
Аудио #6: Английский, AC3 Dolby Digital, 2/0 (L,R) ch, 192 kbps, 48 kHz - Оригинал
Субтитры: Нет

Общее
Полное имя : Kara.nebesnaya.1991.Six.DVDRip.avi
Формат : AVI
Формат/Информация : Audio Video Interleave
Профиль формата : OpenDML
Размер файла : 2,31 Гбайт
Продолжительность : 1 ч. 43 м.
Общий поток : 3213 Кбит/сек
Название фильма : Кара небесная / Подмена / Switch (1991) DVDRip
Жанр : Фэнтези, комедия, криминал, драма
Дата записи : 12.03.2014
Программа кодирования : VirtualDubMod 1.5.10.3 (build 2550/release)
Библиотека кодирования : VirtualDubMod build 2550/release

Видео
Идентификатор : 0
Формат : MPEG-4 Visual
Профиль формата : Advanced Simple@L5
Параметр BVOP формата : 1
Параметр QPel формата : Нет
Параметр GMC формата : Без точки перехода
Параметр матрицы формата : Default (MPEG)
Режим смешивания : Сжатый битовый поток
Идентификатор кодека : XVID
Идентификатор кодека/Подсказка : XviD
Продолжительность : 1 ч. 43 м.
Битрейт : 2033 Кбит/сек
Ширина : 720 пикселей
Высота : 312 пикселей
Соотношение сторон : 2,35:1
Частота кадров : 23,976 кадра/сек
Цветовое пространство : YUV
Субдискретизация насыщенности : 4:2:0
Битовая глубина : 8 бит
Тип развёртки : Прогрессивная
Метод сжатия : С потерями
Бит/(Пиксели*Кадры) : 0.377
Размер потока : 1,46 Гбайт (63%)
Библиотека кодирования : XviD 1.2.1 (UTC 2008-12-04)

Аудио #1
Идентификатор : 1
Формат : AC-3
Формат/Информация : Audio Coding 3
Расширение режима : CM (complete main)
Параметр Endianness формата : Big
Идентификатор кодека : 2000
Продолжительность : 1 ч. 43 м.
Вид битрейта : Постоянный
Битрейт : 192 Кбит/сек
Каналы : 2 канала
Расположение каналов : Front: L R
Частота : 48,0 КГц
Битовая глубина : 16 бит
Метод сжатия : С потерями
Размер потока : 142 Мбайт (6%)
Выравнивание : Разделение по промежуткам
Продолжительность промежутка : 64 мс. (1,53 видеокадра)
Время предзагрузки промежутка : 500 мс.
Заголовок : Russian (DUB, Ленфильм)

Аудио #2
Идентификатор : 2
Формат : AC-3
Формат/Информация : Audio Coding 3
Расширение режима : CM (complete main)
Параметр Endianness формата : Big
Идентификатор кодека : 2000
Продолжительность : 1 ч. 43 м.
Вид битрейта : Постоянный
Битрейт : 192 Кбит/сек
Каналы : 2 канала
Расположение каналов : Front: L R
Частота : 48,0 КГц
Битовая глубина : 16 бит
Метод сжатия : С потерями
Размер потока : 142 Мбайт (6%)
Выравнивание : Разделение по промежуткам
Продолжительность промежутка : 64 мс. (1,53 видеокадра)
Время предзагрузки промежутка : 500 мс.
Заголовок : Russian (MVO, Нота)

Аудио #3
Идентификатор : 3
Формат : AC-3
Формат/Информация : Audio Coding 3
Расширение режима : CM (complete main)
Параметр Endianness формата : Big
Идентификатор кодека : 2000
Продолжительность : 1 ч. 43 м.
Вид битрейта : Постоянный
Битрейт : 192 Кбит/сек
Каналы : 2 канала
Расположение каналов : Front: L R
Частота : 48,0 КГц
Битовая глубина : 16 бит
Метод сжатия : С потерями
Размер потока : 142 Мбайт (6%)
Выравнивание : Разделение по промежуткам
Продолжительность промежутка : 64 мс. (1,53 видеокадра)
Время предзагрузки промежутка : 500 мс.
Заголовок : Russian (MVO, НТВ+)

Аудио #4
Идентификатор : 4
Формат : AC-3
Формат/Информация : Audio Coding 3
Расширение режима : CM (complete main)
Параметр Endianness формата : Big
Идентификатор кодека : 2000
Продолжительность : 1 ч. 43 м.
Вид битрейта : Постоянный
Битрейт : 192 Кбит/сек
Каналы : 2 канала
Расположение каналов : Front: L R
Частота : 48,0 КГц
Битовая глубина : 16 бит
Метод сжатия : С потерями
Размер потока : 142 Мбайт (6%)
Выравнивание : Разделение по промежуткам
Продолжительность промежутка : 64 мс. (1,53 видеокадра)
Время предзагрузки промежутка : 500 мс.
Заголовок : Russian (MVO, ОРТ)

Аудио #5
Идентификатор : 5
Формат : AC-3
Формат/Информация : Audio Coding 3
Профиль формата : Dolby Digital
Расширение режима : CM (complete main)
Параметр Endianness формата : Big
Идентификатор кодека : 2000
Продолжительность : 1 ч. 43 м.
Вид битрейта : Постоянный
Битрейт : 192 Кбит/сек
Каналы : 2 канала
Расположение каналов : Front: L R
Частота : 48,0 КГц
Битовая глубина : 16 бит
Метод сжатия : С потерями
Размер потока : 142 Мбайт (6%)
Выравнивание : Разделение по промежуткам
Продолжительность промежутка : 64 мс. (1,53 видеокадра)
Время предзагрузки промежутка : 500 мс.
Заголовок : Russian (AVO, Михалёв А.М.)

Аудио #6
Идентификатор : 6
Формат : AC-3
Формат/Информация : Audio Coding 3
Профиль формата : Dolby Digital
Расширение режима : CM (complete main)
Параметр Endianness формата : Big
Идентификатор кодека : 2000
Продолжительность : 1 ч. 43 м.
Вид битрейта : Постоянный
Битрейт : 192 Кбит/сек
Каналы : 2 канала
Расположение каналов : Front: L R
Частота : 48,0 КГц
Битовая глубина : 16 бит
Метод сжатия : С потерями
Размер потока : 142 Мбайт (6%)
Выравнивание : Разделение по промежуткам
Продолжительность промежутка : 64 мс. (1,53 видеокадра)
Время предзагрузки промежутка : 500 мс.
Заголовок : English (Original)



Скачать Кара.небесная.Подмена.Switch.(Блейк.Эдвардс).[1991.фэнтези.комедия.криминал.драма.DVDRip].[Dub]+[MVO]x3+[AVO]+[Оригинал].torrent без регистрации
Золото ЗОЛОТАЯ РАЗДАЧА! СКАЧАННОЕ НЕ ЗАСЧИТЫВАЕТСЯ! Золото
Дата: Зарегистрирован   [ Тип: внутренний ] Как тут cкачать?
MAGNET ссылка
MAGNET ссылка


Скачать .torrent

12 KB

Статус: проверено DHT
Скачан: торрент - 98 раз, раздача полностью - 44 раз
Размер: 2,31 GB
Оценка:  - (Голосов: 0)
Поблагодарили: 3
Поделиться ссылкой на эту раздачу с друзьями:
В контактеFacebookОдноклассникиTwitterLivejournalМой МирLiveinternet
 

 
Показать сообщения:    


Вы не можете начинать темы
Вы не можете отвечать на сообщения
Вы не можете редактировать свои сообщения
Вы не можете удалять свои сообщения
Вы не можете голосовать в опросах
Вы не можете прикреплять файлы к сообщениям
Вы можете скачивать файлы