Loading...
Error

Скачать Роковая восьмерка / Hard Eight / Sydney (Пол Томас Андерсон / Paul Thomas Anderson) [1996, Драма, криминал, DVDRip] [MVO] + [AVO] (А. Гаврилов) + Original Eng торрент без регистрации

 
Статистика раздачи
Размер:  1,46 GB   |    Скачан:  108 раз
Сидов:  1  [  0 KB/s  ]  
 
Автор Сообщение

leon030982

[] 

Роковая восьмерка / Hard Eight / Sydney


Год выпуска: 1996
Страна: США
Жанр: Драма, криминал
Продолжительность: 01:37:30
Перевод №1: Профессиональный (многоголосый закадровый)
Перевод №2: Авторский (одноголосый закадровый) [А. Гаврилов]
Cубтитры: нет
Оригинальная аудио дорожка: английский

Режиссер: Пол Томас Андерсон / Paul Thomas Anderson

В ролях: Филип Бейкер Холл, Джон Си Райли, Гвинет Пэлтроу, Сэмюэл Л. Джексон, Ф. Уильям Паркер, Филип Сеймур Хоффман, Натаниэль Купер, Винн Уайт, Роберт Риджли, Кэтлин Кэмпбелл

Описание: Джон сидел у входа в трактир и мечтал о чашечке кофе: сегодня он лишился всех своих денег. Проходивший мимо щедрый господин по имени Сидней угостил бедолагу завтраком, а в ходе беседы поведал, как можно заработать большие деньги, играя в казино.
Под его чутким руководством Джон превратился в первоклассного игрока, и вместе сладкая парочка стала собирать «золотой урожай» по всей стране. Все шло хорошо до тех пор, пока Джон не влюбился в официантку по имени Клементина…



Качество видео: DVDRip
Формат: AVI
Видео кодек: XviD
Аудио кодек: AC3
Видео: XviD, 1551 Кбит/с, 720x304, 25,000 кадров/сек
Аудио №1: AC3, 2 ch, 192 Кбит/с, 48,0 КГц / Профессиональный (многоголосый, закадровый)
Аудио №2: AC3, 2 ch, 192 Кбит/с, 48,0 КГц / Авторский (одноголосый, закадровый) [А. Гаврилов]
Аудио №3: AC3, 2 ch, 192 Кбит/с, 48,0 КГц / Английский

Релиз от
I:\Роковая восьмерка\Rokovaja.vosmerka.1996.XviD.DVDRip.egoleshik.avi
General
Complete name : I:\Роковая восьмерка\Rokovaja.vosmerka.1996.XviD.DVDRip.egoleshik.avi
Format : AVI
Format/Info : Audio Video Interleave
File size : 1.46 GiB
Duration : 1h 37mn
Overall bit rate : 2 148 Kbps
Movie name : Rokovaja.vosmerka.1996.XviD.DVDRip.egoleshik
Director : Paul Thomas Anderson
Genre : Crime/Drama/Thriller
Writing application : VirtualDubMod 1.5.10.3 | www.virtualdub-fr.org || (build 2550/release)

Video #0
ID : 0
Format : MPEG-4 Visual
Format profile : Advanced Simple@L5
Format settings, BVOP : 2
Format settings, QPel : No
Format settings, GMC : No warppoints
Format settings, Matrix : Default (MPEG)
Codec ID : XVID
Codec ID/Hint : XviD
Duration : 1h 37mn
Bit rate : 1 474 Kbps
Width : 720 pixels
Height : 304 pixels
Display aspect ratio : 2.35:1
Frame rate : 25.000 fps
Color space : YUV
Chroma subsampling : 4:2:0
Bit depth : 8 bits
Scan type : Progressive
Compression mode : Lossy
Bits/(Pixel*Frame) : 0.269
Stream size : 1.00 GiB (69%)
Writing library : XviD 1.2.1 (UTC 2008-12-04)
Audio #1
ID : 1
Format : AC-3
Format/Info : Audio Coding 3
Mode extension : CM (complete main)
Format settings, Endianness : Big
Codec ID : 2000
Duration : 1h 37mn
Bit rate mode : Constant
Bit rate : 192 Kbps
Channel count : 2 channels
Channel positions : Front: L R
Sampling rate : 48.0 KHz
Bit depth : 16 bits
Compression mode : Lossy
Stream size : 134 MiB (9%)
Alignment : Split accross interleaves
Audio #2
ID : 2
Format : AC-3
Format/Info : Audio Coding 3
Mode extension : CM (complete main)
Format settings, Endianness : Big
Codec ID : 2000
Duration : 1h 37mn
Bit rate mode : Constant
Bit rate : 192 Kbps
Channel count : 2 channels
Channel positions : Front: L R
Sampling rate : 48.0 KHz
Bit depth : 16 bits
Compression mode : Lossy
Stream size : 134 MiB (9%)
Alignment : Split accross interleaves
Audio #3
ID : 3
Format : AC-3
Format/Info : Audio Coding 3
Mode extension : CM (complete main)
Format settings, Endianness : Big
Codec ID : 2000
Duration : 1h 37mn
Bit rate mode : Constant
Bit rate : 192 Kbps
Channel count : 2 channels
Channel positions : Front: L R
Sampling rate : 48.0 KHz
Bit depth : 16 bits
Compression mode : Lossy
Stream size : 134 MiB (9%)
Alignment : Split accross interleaves



Скачать Роковая.восьмерка.Hard.Eight.Sydney.(Пол.Томас.Андерсон.Paul.Thomas.Anderson).[1996.Драма.криминал.DVDRip].[MVO].+.[AVO].(А.Гаврилов).+.Original.Eng.torrent без регистрации
Золото ЗОЛОТАЯ РАЗДАЧА! СКАЧАННОЕ НЕ ЗАСЧИТЫВАЕТСЯ! Золото
Дата: Зарегистрирован   [ Тип: внутренний ] Как тут cкачать?
MAGNET ссылка
MAGNET ссылка


Скачать .torrent

15 KB

Статус: проверено DHT
Скачан: торрент - 108 раз, раздача полностью - 3 раз
Размер: 1,46 GB
Оценка:  5 (Голосов: 1)
Поблагодарили: 1
Поделиться ссылкой на эту раздачу с друзьями:
В контактеFacebookОдноклассникиTwitterLivejournalМой МирLiveinternet
 

 
Показать сообщения:    


Вы не можете начинать темы
Вы не можете отвечать на сообщения
Вы не можете редактировать свои сообщения
Вы не можете удалять свои сообщения
Вы не можете голосовать в опросах
Вы не можете прикреплять файлы к сообщениям
Вы можете скачивать файлы