Loading...
Error

Скачать Двое в городе / Deux hommes dans la ville (Хосе Джованни / Jose Giovanni) [1973, криминальная драма, DVDRip-AVC] [Dub] + [Original Fre] + Sub Rus торрент без регистрации

 
Статистика раздачи
Размер:  2,18 GB   |    Скачан:  106 раз
Сидов:  1  [  0 KB/s  ]  
 
Автор Сообщение

leon030982

[] 

Двое в городе / Deux hommes dans la ville

Страна: Франция, Италия
Жанр: криминальная драма
Год выпуска: 1973
Продолжительность: 01:34:28
Перевод: Профессиональный (дублированный)
Оригинальная аудиодорожка: французский
Cубтитры: русские
Режиссер: Хосе Джованни / Jose Giovanni
В ролях:
Ален Делон, Жан Габен, Мишель Буке, Мимси Фармер, Виктор Лану, Бернар Жиродо, Жак Моно, Кристин Фабрега, Малка Рибовска, Илария Оккини, Робер Кастель, Жерар Депардье

Описание:
Благодаря поручительству тюремного воспитателя Казнёва, грабитель банков Джино досрочно выходит из тюрьмы. Бывший заключенный решает покончить с преступным прошлым, устраивается на работу и начинает честную жизнь. Но роковая случайность сводит Джино с инспектором Пуатро, который посадил его за решетку 10 лет назад. Усердный полицейский считает, что преступников может исправить только могила, и начинает слежку за Джино, бесцеремонно вторгаясь в его личную жизнь.
| Сэмпл |
Качество видео: DVDRip-AVC
Формат видео: MKV
Видео: x264 (High@L4.1); 676х@961х572, Display aspect ratio 1.680:1, 25.000 fps, 2403 Kbps
Аудио 1: Русский: AC-3; 16 bit 48 Khz; 5.1 ch 448 Kbps; CBR | Советский дубляж
Аудио 2: Французский: AC-3; 16 bit 48 Khz; 5.1 ch 448 Kbps; CBR | Original
Формат субтитров: softsub (SRT)
FillMargins(0, 1, 0, 0)

avs [info]: 676x572p 64:45 @ 25/1 fps (cfr)
x264 [info]: using SAR=64/45
x264 [info]: using cpu capabilities: MMX2 SSE2Fast SSSE3 SSE4.2
x264 [info]: profile High, level 4.1
x264 [info]: frame I:889 Avg QP:16.18 size: 58069
x264 [info]: frame P:29550 Avg QP:18.30 size: 26336
x264 [info]: frame B:111284 Avg QP:20.45 size: 7843
x264 [info]: consecutive B-frames: 1.5% 2.6% 7.8% 15.3% 10.0% 58.1% 2.9% 0.3% 0.2% 0.1% 0.1% 0.1% 0.0% 0.0% 0.0% 0.0% 1.0%
x264 [info]: mb I I16..4: 2.6% 83.6% 13.8%
x264 [info]: mb P I16..4: 0.3% 12.2% 1.6% P16..4: 30.5% 37.4% 15.3% 1.7% 0.1% skip: 0.8%
x264 [info]: mb B I16..4: 0.0% 1.4% 0.2% B16..8: 34.9% 22.0% 3.4% direct: 7.4% skip:30.5% L0:36.1% L1:43.3% BI:20.6%
x264 [info]: 8x8 transform intra:85.4% inter:60.6%
x264 [info]: direct mvs spatial:98.3% temporal:1.7%
x264 [info]: coded y,uvDC,uvAC intra: 93.9% 72.3% 32.7% inter: 36.2% 20.2% 4.5%
x264 [info]: i16 v,h,dc,p: 33% 16% 7% 44%
x264 [info]: i8 v,h,dc,ddl,ddr,vr,hd,vl,hu: 14% 10% 6% 9% 12% 14% 11% 13% 11%
x264 [info]: i4 v,h,dc,ddl,ddr,vr,hd,vl,hu: 18% 26% 3% 6% 10% 12% 8% 9% 8%
x264 [info]: i8c dc,h,v,p: 24% 31% 27% 18%
x264 [info]: Weighted P-Frames: Y:9.2% UV:1.5%
x264 [info]: ref P L0: 39.0% 13.2% 17.5% 5.7% 5.6% 3.5% 3.6% 1.8% 1.9% 1.4% 1.5% 1.2% 1.3% 1.0% 1.1% 0.7%
x264 [info]: ref B L0: 82.8% 8.8% 2.4% 1.4% 0.9% 0.8% 0.6% 0.4% 0.3% 0.3% 0.3% 0.3% 0.2% 0.2% 0.1%
x264 [info]: ref B L1: 96.3% 3.7%
x264 [info]: kb/s:2402.77
x264 [total]: encoded 141723 frames, 11.63 fps, 2402.77 kb/s

General
Unique ID : 215180566782081743559441409902508667475 (0xA1E2450B29B60E48AE79AE297E1A7253)
Complete name : Двое в городе.1973.mkv
Format : Matroska
Format version : Version 2
File size : 2.18 GiB
Duration : 1h 34mn
Overall bit rate : 3 301 Kbps
Movie name : «Двое в городе / Deux hommes dans la ville»
Encoded date : UTC 2014-03-13 16:33:07
Writing application : mkvmerge v5.8.0 ('No Sleep / Pillow') built on Sep 2 2012 15:37:04
Writing library : libebml v1.2.3 + libmatroska v1.3.0
Comment : DVDRip-AVC
Original date released : March 13th 2014
Encoded by : imgeorgest®
Video
ID : 1
Format : AVC
Format/Info : Advanced Video Codec
Format profile : High@L4.1
Format settings, CABAC : Yes
Format settings, ReFrames : 16 frames
Codec ID : V_MPEG4/ISO/AVC
Duration : 1h 34mn
Bit rate : 2 403 Kbps
Width : 676 pixels
Height : 572 pixels
Display aspect ratio : 1.680
Original display aspect ratio : 1.681
Frame rate mode : Constant
Frame rate : 25.000 fps
Color space : YUV
Chroma subsampling : 4:2:0
Bit depth : 8 bits
Scan type : Progressive
Bits/(Pixel*Frame) : 0.249
Stream size : 1.54 GiB (71%)
Title : Двое в городе / Deux hommes dans la ville.1973
Writing library : x264 core 130 r2273 b3065e6
Encoding settings : cabac=1 / ref=16 / deblock=1:-2:-2 / analyse=0x3:0x133 / me=umh / subme=11 / psy=1 / psy_rd=1.00:0.00 / mixed_ref=1 / me_range=48 / chroma_me=1 / trellis=2 / 8x8dct=1 / cqm=0 / deadzone=21,11 / fast_pskip=0 / chroma_qp_offset=-2 / threads=12 / lookahead_threads=3 / sliced_threads=0 / nr=0 / decimate=0 / interlaced=0 / bluray_compat=0 / constrained_intra=0 / bframes=16 / b_pyramid=2 / b_adapt=2 / b_bias=0 / direct=3 / weightb=1 / open_gop=0 / weightp=2 / keyint=250 / keyint_min=25 / scenecut=40 / intra_refresh=0 / rc_lookahead=60 / rc=2pass / mbtree=1 / bitrate=2403 / ratetol=1.0 / qcomp=0.70 / qpmin=0 / qpmax=32 / qpstep=4 / cplxblur=20.0 / qblur=0.5 / vbv_maxrate=50000 / vbv_bufsize=62500 / nal_hrd=none / ip_ratio=1.20 / aq=1:0.90
Language : French
Default : Yes
Forced : No
Color primaries : BT.601 PAL
Transfer characteristics : BT.470 System B, BT.470 System G
Matrix coefficients : BT.601
Audio #1
ID : 2
Format : AC-3
Format/Info : Audio Coding 3
Mode extension : CM (complete main)
Format settings, Endianness : Big
Codec ID : A_AC3
Duration : 1h 34mn
Bit rate mode : Constant
Bit rate : 448 Kbps
Channel(s) : 6 channels
Channel positions : Front: L C R, Side: L R, LFE
Sampling rate : 48.0 KHz
Bit depth : 16 bits
Compression mode : Lossy
Stream size : 303 MiB (14%)
Title : Дубляж: AC-3; 16 bit 48 Khz; 5.1 ch 448 Kbps; CBR
Language : Russian
Default : Yes
Forced : No
Audio #2
ID : 3
Format : AC-3
Format/Info : Audio Coding 3
Mode extension : CM (complete main)
Format settings, Endianness : Big
Codec ID : A_AC3
Duration : 1h 34mn
Bit rate mode : Constant
Bit rate : 448 Kbps
Channel(s) : 6 channels
Channel positions : Front: L C R, Side: L R, LFE
Sampling rate : 48.0 KHz
Bit depth : 16 bits
Compression mode : Lossy
Stream size : 303 MiB (14%)
Title : Original: AC-3; 16 bit 48 Khz; 5.1 ch 448 Kbps; CBR | fre
Language : French
Default : No
Forced : No
Text
ID : 4
Format : UTF-8
Codec ID : S_TEXT/UTF8
Codec ID/Info : UTF-8 Plain Text
Title : Subs / SRT | полные
Language : Russian
Default : No
Forced : No



Скачать Двое.в.городе.Deux.hommes.dans.la.ville.(Хосе.Джованни.Jose.Giovanni).[1973.криминальная.драма.DVDRip-AVC].[Dub].+.[Original.Fre].+.Sub.Rus.torrent без регистрации
Золото ЗОЛОТАЯ РАЗДАЧА! СКАЧАННОЕ НЕ ЗАСЧИТЫВАЕТСЯ! Золото
Дата: Зарегистрирован   [ Тип: внутренний ] Как тут cкачать?
MAGNET ссылка
MAGNET ссылка


Скачать .torrent

11 KB

Статус: проверено DHT
Скачан: торрент - 106 раз, раздача полностью - 2 раз
Размер: 2,18 GB
Оценка:  5 (Голосов: 1)
Поблагодарили: 1
Поделиться ссылкой на эту раздачу с друзьями:
В контактеFacebookОдноклассникиTwitterLivejournalМой МирLiveinternet
 

 
Показать сообщения:    


Вы не можете начинать темы
Вы не можете отвечать на сообщения
Вы не можете редактировать свои сообщения
Вы не можете удалять свои сообщения
Вы не можете голосовать в опросах
Вы не можете прикреплять файлы к сообщениям
Вы можете скачивать файлы