Loading...
Error

Скачать Двойной удар / Double Impact (Шелдон Леттич / Sheldon Lettich) [1991, боевик, BDRip] [AVO] (с VHS) + [DUB] (Хлопушка) торрент без регистрации

 
Статистика раздачи
Размер:  1,88 GB   |    Скачан:  107 раз

Полного источника не было: 30 минут

 
Автор Сообщение

leon030982

[] 

Двойной удар / Double Impact


Год выпуска: 1991
Страна: США
Жанр: боевик
Продолжительность: 01:49:40
Перевод #1: Авторский (одноголосный, закадровый)[с VHS / переводчик не опознан]
Перевод #2: Профессиональный (дублированный)[Хлопушка]
Cубтитры: нет

Режиссер: Шелдон Леттич

В ролях: Жан-Клод Ван Дамм, Джеффри Льюис, Алонна Шоу, Коринна Эверсон, Филип Чань, Алан Скарф, Боло Йенг, Энди Армстронг, Ву Фонг Ланг, Питер Малота и другие


Когда-то мафия из Гонконга жестоко и безжалостно расправилась с родителями братьев-близнецов Чеда и Алекса, которых чудом удалось спасти в давней кровавой перестрелке. Судьба раскидала братьев по разные стороны океана: один рос в Калифорнии, другой остался в Гонконге. И вот спустя 25 лет стараниями верного друга их погибших родителей два брата встречаются, чтобы заставить виновников того преступления сильно раскаяться в некогда содеянном...


Качество: BDRip
Формат: AVI
Видео кодек: XviD
Аудио кодек: AC3
Видео: 704x384 (1.83:1), 23.976 fps, XviD build 65 ~2049 kbps avg, 0.32 bit/pixel
Аудио #1: 48 kHz, AC3 Dolby Digital, 2/0 (L,R) ch, ~192.00 kbps avg [AVO]
Аудио #2: 48 kHz, AC3 Dolby Digital, 2/0 (L,R) ch, ~192.00 kbps avg [DUB]

Цитата:

Видеоряд от kingsize87 --- Спасибо!

Цитата:

Авторская дорожка синхронизирована и наложена ale_x2008 при помощи Sony Vegas и VirtualDubMod.
За оцифрованную с VHS дорожку благодарим - ermak1990

Примечание: Данная дорожка, впервые выложенная в сеть 06.03.2014, отличная от существующей в сети, а именно - она не убита шумодавами (поэтому звонче), нет провалов по звуку, выполнена с иным наложением чистого голоса на оригинал.
>>>Авторская дорожка для истинных ценителей и видеоманов эпохи VHS<<<

Цитата:

Дублированная дорожка взята с релиза HQCLUB
General
Complete name : E:\INTERNET\Double Impact.1991.BDRip.[AVO]+[DUB].avi
Format : AVI
Format/Info : Audio Video Interleave
File size : 1.88 GiB
Duration : 1h 49mn
Overall bit rate : 2 448 Kbps
Writing application : VirtualDubMod 1.5.10.3 (build 2550/release)
Writing library : VirtualDubMod build 2550/release

Video
ID : 0
Format : MPEG-4 Visual
Format profile : Advanced Simple@L5
Format settings, BVOP : 1
Format settings, QPel : No
Format settings, GMC : No warppoints
Format settings, Matrix : Custom
Codec ID : XVID
Codec ID/Hint : XviD
Duration : 1h 49mn
Bit rate : 2 050 Kbps
Width : 704 pixels
Height : 384 pixels
Display aspect ratio : 16:9
Frame rate : 23.976 fps
Color space : YUV
Chroma subsampling : 4:2:0
Bit depth : 8 bits
Scan type : Progressive
Compression mode : Lossy
Bits/(Pixel*Frame) : 0.316
Stream size : 1.57 GiB (84%)
Writing library : XviD 65

Audio #1
ID : 1
Format : AC-3
Format/Info : Audio Coding 3
Mode extension : CM (complete main)
Codec ID : 2000
Duration : 1h 49mn
Bit rate mode : Constant
Bit rate : 192 Kbps
Channel(s) : 2 channels
Channel positions : Front: L R
Sampling rate : 48.0 KHz
Bit depth : 16 bits
Compression mode : Lossy
Stream size : 151 MiB (8%)
Alignment : Split accross interleaves
Interleave, duration : 42 ms (1.00 video frame)
Interleave, preload duration : 500 ms

Audio #2
ID : 2
Format : AC-3
Format/Info : Audio Coding 3
Mode extension : CM (complete main)
Codec ID : 2000
Duration : 1h 49mn
Bit rate mode : Constant
Bit rate : 192 Kbps
Channel(s) : 2 channels
Channel positions : Front: L R
Sampling rate : 48.0 KHz
Bit depth : 16 bits
Compression mode : Lossy
Stream size : 151 MiB (8%)
Alignment : Split accross interleaves
Interleave, duration : 42 ms (1.00 video frame)
Interleave, preload duration : 500 ms



Скачать Двойной.удар.Double.Impact.(Шелдон.Леттич.Sheldon.Lettich).[1991.боевик.BDRip].[AVO].(с.VHS).+.[DUB].(Хлопушка).torrent без регистрации
Золото ЗОЛОТАЯ РАЗДАЧА! СКАЧАННОЕ НЕ ЗАСЧИТЫВАЕТСЯ! Золото
Дата: Зарегистрирован   [ Тип: внутренний ] Как тут cкачать?
MAGNET ссылка
MAGNET ссылка


Скачать .torrent

19 KB

Статус: проверено DHT
Скачан: торрент - 107 раз, раздача полностью - 12 раз
Размер: 1,88 GB
Оценка:  5 (Голосов: 2)
Поблагодарили: 2
Поделиться ссылкой на эту раздачу с друзьями:
В контактеFacebookОдноклассникиTwitterLivejournalМой МирLiveinternet
 

 
Показать сообщения:    


Вы не можете начинать темы
Вы не можете отвечать на сообщения
Вы не можете редактировать свои сообщения
Вы не можете удалять свои сообщения
Вы не можете голосовать в опросах
Вы не можете прикреплять файлы к сообщениям
Вы можете скачивать файлы