Loading...
Error

Скачать Долг присяжного / Jury Duty (Джон Фортенберри / John Fortenberry) [1995 г., комедия, DVDRip] [AVO] (Сергей Визгунов) торрент без регистрации

 
Статистика раздачи
Размер:  1,45 GB   |    Скачан:  107 раз
Сидов:  1  [  0 KB/s  ]  
 
Автор Сообщение

leon030982

[] 

Долг присяжного / Jury Duty


Год выпуска: 1995
Страна: США
Жанр: комедия
Продолжительность: 01:27:51.975
Перевод: Авторский (одноголосный)[Сергей Визгунов]
Русские субтитры: нет

Режиссер: Джон Фортенберри / John Fortenberry

В ролях: Поли Шор, Тиа Каррере, Стенли Туччи, Брайан Дойл-Мюррэй, Эйб Вигода, Чарльз Нейпьер, Ричард Эдсон, Ричард Риле, Alex Datcher, Ричард Т. Джонс


Пол — настоящий лентяй. Он принял предложение стать присяжным, чтобы затянуть дело и не работать подольше. Но вышло так, что он не только нашел настоящего убийцу, но и стал знаменитым юристом…



Качество: DVDRip
Формат: AVI
Видео кодек: XviD
Аудио кодек: MP3
Видео: 720x544 (1.32:1), 23.976 fps, XviD build 47 ~2027 kbps avg, 0.22 bit/pixel
Аудио #1 : 48 kHz, MPEG Layer 3, 2 ch, ~128.00 kbps avg [AVO]
Аудио #2 : 48 kHz, MPEG Layer 3, 2 ch, ~192.00 kbps avg [ENG]
General
Complete name : E:\INTERNET\Prisyazhnyi.avi
Format : AVI
Format/Info : Audio Video Interleave
File size : 1.45 GiB
Duration : 1h 27mn
Overall bit rate : 2 363 Kbps
Writing application : VirtualDubMod 1.5.10.2 (build 2540/release)
Writing library : VirtualDubMod build 2540/release

Video
ID : 0
Format : MPEG-4 Visual
Format profile : Advanced Simple@L5
Format settings, BVOP : 1
Format settings, QPel : No
Format settings, GMC : No warppoints
Format settings, Matrix : Custom
Codec ID : XVID
Codec ID/Hint : XviD
Duration : 1h 27mn
Bit rate : 2 029 Kbps
Width : 720 pixels
Height : 544 pixels
Display aspect ratio : 4:3
Frame rate : 23.976 fps
Color space : YUV
Chroma subsampling : 4:2:0
Bit depth : 8 bits
Scan type : Progressive
Compression mode : Lossy
Bits/(Pixel*Frame) : 0.216
Stream size : 1.25 GiB (86%)
Writing library : XviD 1.2.0.dev47 (UTC 2006-11-01)

Audio #1
ID : 1
Format : MPEG Audio
Format version : Version 1
Format profile : Layer 3
Mode : Joint stereo
Mode extension : MS Stereo
Codec ID : 55
Codec ID/Hint : MP3
Duration : 1h 27mn
Bit rate mode : Constant
Bit rate : 128 Kbps
Channel(s) : 2 channels
Sampling rate : 48.0 KHz
Compression mode : Lossy
Stream size : 80.4 MiB (5%)
Alignment : Aligned on interleaves
Interleave, duration : 42 ms (1.00 video frame)
Interleave, preload duration : 504 ms

Audio #2
ID : 2
Format : MPEG Audio
Format version : Version 1
Format profile : Layer 3
Mode : Joint stereo
Mode extension : MS Stereo
Codec ID : 55
Codec ID/Hint : MP3
Duration : 1h 27mn
Bit rate mode : Constant
Bit rate : 192 Kbps
Channel(s) : 2 channels
Sampling rate : 48.0 KHz
Compression mode : Lossy
Stream size : 121 MiB (8%)
Alignment : Aligned on interleaves
Interleave, duration : 42 ms (1.00 video frame)
Interleave, preload duration : 504 ms
Writing library : LAME3.97
Encoding settings : -m j -V 4 -q 2 -lowpass 18.6 -b 192



Скачать Долг.присяжного.Jury.Duty.(Джон.Фортенберри.John.Fortenberry).[1995.г.комедия.DVDRip].[AVO].(Сергей.Визгунов).torrent без регистрации
Золото ЗОЛОТАЯ РАЗДАЧА! СКАЧАННОЕ НЕ ЗАСЧИТЫВАЕТСЯ! Золото
Дата: Зарегистрирован   [ Тип: внутренний ] Как тут cкачать?
MAGNET ссылка
MAGNET ссылка


Скачать .torrent

116 KB

Статус: проверено DHT
Скачан: торрент - 107 раз, раздача полностью - 6 раз
Размер: 1,45 GB
Оценка:  - (Голосов: 0)
Поблагодарили: 0
Поделиться ссылкой на эту раздачу с друзьями:
В контактеFacebookОдноклассникиTwitterLivejournalМой МирLiveinternet
 

 
Показать сообщения:    


Вы не можете начинать темы
Вы не можете отвечать на сообщения
Вы не можете редактировать свои сообщения
Вы не можете удалять свои сообщения
Вы не можете голосовать в опросах
Вы не можете прикреплять файлы к сообщениям
Вы можете скачивать файлы