Loading...
Error

Скачать Голографический человек / Hologram Man (Ричард Пепин / Richard Pepin) [1995, фантастика, боевик, DVDRip] [AVO] (Гаврилов) + [Original Eng] торрент без регистрации

 
Статистика раздачи
Размер:  1,46 GB   |    Скачан:  113 раз
Сидов:  1  [  0 KB/s  ]  
 
Автор Сообщение

leon030982

[] 

Голографический человек / Hologram Man


Год выпуска: 1995
Страна: США
Жанр: фантастика, боевик
Продолжительность: 01:37:02
Перевод: Авторский (одноголосый, закадровый) [Андрей Гаврилов]
Cубтитры: нет
Оригинальная аудиодорожка: английский
Режиссер: Ричард Пепин / Richard Pepin
В ролях: Джо Лара, Ивэн Лури, Майкл Нури, Джон Эймос, Тина Арнинг, Тоди Бернард, Род Бритт, Чак Бутто, Джозеф Кампанелла, Алекс Корд
Описание: Действие фильма происходит в США в Лос-Анджелесе в отдалённом будущем. Городом управляет некая «Калифорнийская корпорация», во главе которой стоит Эдвард Джеймсон. Корпорация фактически захватила город, узурпировав права граждан. Противостоит корпорации Норман Гэллагер по прозвищу Слэш. В чём-то Норман прав, но он поступает как террорист — убивает часть сотрудников корпорации, губернатора Хэмптона, а также одного из полицейских — Веса Стриклэнда. Поймать же Нормана удаётся полицейскому-новичку Декоде, для которого убитый Вес был лучшим другом и напарником. Норман Гэллагер получает тюремный срок, но не в простой тюрьме, а в голографической. В этой тюрьме находится мозг Гэллагера и его гологоафический образ. На бывшего террориста пытаются воздействовать и перевоспитать его..

Качество видео: DVDRip (Исх.DVD5)
Формат видео: AVI
Видео: 704x512 (1.38:1), 25 fps, XviD build 73 ~1722 kbps avg, 0.19 bit/pixel
Аудио 1: 48 kHz, AC3 Dolby Digital, 2/0 (L,R) ch, ~192 kbps RUS
Аудио 2: 48 kHz, AC3 Dolby Digital, 2/0 (L,R) ch, ~224 kbps ENG
General
Complete name : D:\Релизы\Hologram Man.1995.RUS.ENG.DVDRip.XviD.AC3.avi
Format : AVI
Format/Info : Audio Video Interleave
File size : 1.46 GiB
Duration : 1h 37mn
Overall bit rate : 2 154 Kbps
Writing application : VirtualDubMod 1.5.10.2 (build 2540/release)
Writing library : VirtualDubMod build 2540/release
Video
ID : 0
Format : MPEG-4 Visual
Format profile : Advanced Simple@L5
Format settings, BVOP : 1
Format settings, QPel : No
Format settings, GMC : No warppoints
Format settings, Matrix : Custom
Codec ID : XVID
Codec ID/Hint : XviD
Duration : 1h 37mn
Bit rate : 1 724 Kbps
Width : 704 pixels
Height : 512 pixels
Display aspect ratio : 1.375
Frame rate : 25.000 fps
Color space : YUV
Chroma subsampling : 4:2:0
Bit depth : 8 bits
Scan type : Progressive
Compression mode : Lossy
Bits/(Pixel*Frame) : 0.191
Stream size : 1.17 GiB (80%)
Writing library : XviD 73
Audio #1
ID : 1
Format : AC-3
Format/Info : Audio Coding 3
Mode extension : CM (complete main)
Format settings, Endianness : Big
Codec ID : 2000
Duration : 1h 37mn
Bit rate mode : Constant
Bit rate : 192 Kbps
Channel(s) : 2 channels
Channel positions : Front: L R
Sampling rate : 48.0 KHz
Bit depth : 16 bits
Compression mode : Lossy
Stream size : 133 MiB (9%)
Alignment : Split accross interleaves
Interleave, duration : 40 ms (1.00 video frame)
Interleave, preload duration : 500 ms
Audio #2
ID : 2
Format : AC-3
Format/Info : Audio Coding 3
Mode extension : CM (complete main)
Format settings, Endianness : Big
Codec ID : 2000
Duration : 1h 37mn
Bit rate mode : Constant
Bit rate : 224 Kbps
Channel(s) : 2 channels
Channel positions : Front: L R
Sampling rate : 48.0 KHz
Bit depth : 16 bits
Compression mode : Lossy
Stream size : 155 MiB (10%)
Alignment : Split accross interleaves
Interleave, duration : 40 ms (1.00 video frame)
Interleave, preload duration : 500 ms



Скачать Голографический.человек.Hologram.Man.(Ричард.Пепин.Richard.Pepin).[1995.фантастика.боевик.DVDRip].[AVO].(Гаврилов).+.[Original.Eng].torrent без регистрации
Золото ЗОЛОТАЯ РАЗДАЧА! СКАЧАННОЕ НЕ ЗАСЧИТЫВАЕТСЯ! Золото
Дата: Зарегистрирован   [ Тип: внутренний ] Как тут cкачать?
MAGNET ссылка
MAGNET ссылка


Скачать .torrent

15 KB

Статус: проверено DHT
Скачан: торрент - 113 раз, раздача полностью - 9 раз
Размер: 1,46 GB
Оценка:  5 (Голосов: 1)
Поблагодарили: 1
Поделиться ссылкой на эту раздачу с друзьями:
В контактеFacebookОдноклассникиTwitterLivejournalМой МирLiveinternet
 

 
Показать сообщения:    


Вы не можете начинать темы
Вы не можете отвечать на сообщения
Вы не можете редактировать свои сообщения
Вы не можете удалять свои сообщения
Вы не можете голосовать в опросах
Вы не можете прикреплять файлы к сообщениям
Вы можете скачивать файлы