Loading...
Error

Скачать Первый рыцарь / First Knight (Джерри Цукер / Jerry Zucker) [1995, Драма, мелодрама, приключения, BDRip] [AVO] (Юрий Живов) + Original Eng торрент без регистрации

 
Статистика раздачи
Размер:  2,19 GB   |    Скачан:  100 раз

Полного источника не было: 24 минуты

 
Автор Сообщение

leon030982

[] 

Первый рыцарь / First Knight


Год выпуска: 1995
Страна: США
Жанр: Драма, мелодрама, приключения
Продолжительность: 02:13:50
Перевод: Авторский (одноголосый, закадровый)[Юрий Живов]
Cубтитры: нет
Оригинальная аудиодорожка: английский

Режиссёр: Джерри Цукер / Jerry Zucker

В ролях: Шон Коннери, Ричард Гир, Джулия Ормонд, Бен Кросс, Лиам Каннингэм, Кристофер Вилльерс, Валентин Пелка, Колин МакКормэк, Ралф Айнесон, Джон Гилгуд

Описание: Ланселот, воин без страха и упрека, прибыл в золотой замок Камелот, чтобы служить великому королю Артуру. Им предстоят грозные сражения, доблесть и слава.
Но в Камелоте он находит женщину, без которой не может жить, но которой не в силах обладать — прекрасную Гуиневеру Лионесскую. Она — возлюбленная короля Артура, который защищает её маленькое королевство от войск чёрного рыцаря Малаганта.
И Первый Рыцарь Ланселот должен сделать выбор — служить своему королю, или предать его во имя любимой…



Качество видео: BDRip (исходник: Blu-ray CEE (1080p))
Формат видео: AVI
Видео: XviD build 63, 704x384 (1,85:1), 23.976 fps, 1938 kbps avg, 0.299 bit/pixel
Аудио №1: AC3 Dolby Digital, 48000Hz, 2/0 (L,R) ch, 192.00 kbps avg
Аудио №2: AC3 Dolby Digital, 48000Hz, 2/0 (L,R) ch, 192.00 kbps avg


За оцифрованную с VHS дорожку благодарим - DjVu-Master
За синхронизацию, ремастирование и наложение дорожки с переводом Юрия Живова при помощи Adobe Audition, Sony Vegas и VirtualDubMod благодарим - ale_x2008
Видеоряд с HQCLUB
Общее
Полное имя : C:\Users\user\Downloads\First Knight (Первый рыцарь) BDRip.Jivov.avi
Формат : AVI
Формат/Информация : Audio Video Interleave
Профиль формата : OpenDML
Размер файла : 2,19 Гбайт
Продолжительность : 2 ч. 13 м.
Общий поток : 2340 Кбит/сек
Название фильма : First Knight (1995)
Режиссёр : DaniLch
Жанр : Adventure/Drama/Romance
Программа кодирования : VirtualDubMod 1.5.10.3 (build 2550/release)
Библиотека кодирования : VirtualDubMod build 2550/release
Примечание : R.G. HQCLUB
Видео
Идентификатор : 0
Формат : MPEG-4 Visual
Профиль формата : Advanced Simple@L5
Параметр BVOP формата : 1
Параметр QPel формата : Нет
Параметр GMC формата : Без точки перехода
Параметр матрицы формата : Выборочная
Идентификатор кодека : XVID
Идентификатор кодека/Подсказка : XviD
Продолжительность : 2 ч. 13 м.
Битрейт : 1938 Кбит/сек
Ширина : 704 пикселя
Высота : 384 пикселя
Соотношение сторон : 1,85:1
Частота кадров : 23,976 кадра/сек
Цветовое пространство : YUV
Субдискретизация насыщенности : 4:2:0
Битовая глубина : 8 бит
Тип развёртки : Прогрессивная
Метод сжатия : С потерями
Бит/(Пиксели*Кадры) : 0.299
Размер потока : 1,81 Гбайт (83%)
Библиотека кодирования : XviD 63
Аудио #1
Идентификатор : 1
Формат : AC-3
Формат/Информация : Audio Coding 3
Расширение режима : CM (complete main)
Параметр Endianness формата : Big
Идентификатор кодека : 2000
Продолжительность : 2 ч. 13 м.
Вид битрейта : Постоянный
Битрейт : 192 Кбит/сек
Каналы : 2 канала
Расположение каналов : Front: L R
Частота : 48,0 КГц
Битовая глубина : 16 бит
Метод сжатия : С потерями
Размер потока : 184 Мбайт (8%)
Выравнивание : Разделение по промежуткам
Продолжительность промежутка : 42 мс. (1,00 видеокадр)
Время предзагрузки промежутка : 500 мс.
Аудио #2
Идентификатор : 2
Формат : AC-3
Формат/Информация : Audio Coding 3
Расширение режима : CM (complete main)
Параметр Endianness формата : Big
Идентификатор кодека : 2000
Продолжительность : 2 ч. 13 м.
Вид битрейта : Постоянный
Битрейт : 192 Кбит/сек
Каналы : 2 канала
Расположение каналов : Front: L R
Частота : 48,0 КГц
Битовая глубина : 16 бит
Метод сжатия : С потерями
Размер потока : 184 Мбайт (8%)
Выравнивание : Разделение по промежуткам
Продолжительность промежутка : 42 мс. (1,00 видеокадр)
Время предзагрузки промежутка : 500 мс.



Скачать Первый.рыцарь.First.Knight.(Джерри.Цукер.Jerry.Zucker).[1995.Драма.мелодрама.приключения.BDRip].[AVO].(Юрий.Живов).+.Original.Eng.torrent без регистрации
Золото ЗОЛОТАЯ РАЗДАЧА! СКАЧАННОЕ НЕ ЗАСЧИТЫВАЕТСЯ! Золото
Дата: Зарегистрирован   [ Тип: внутренний ] Как тут cкачать?
MAGNET ссылка
MAGNET ссылка


Скачать .torrent

11 KB

Статус: проверено DHT
Скачан: торрент - 100 раз, раздача полностью - 1 раз
Размер: 2,19 GB
Оценка:  - (Голосов: 0)
Поблагодарили: 1
Поделиться ссылкой на эту раздачу с друзьями:
В контактеFacebookОдноклассникиTwitterLivejournalМой МирLiveinternet
 

 
Показать сообщения:    


Вы не можете начинать темы
Вы не можете отвечать на сообщения
Вы не можете редактировать свои сообщения
Вы не можете удалять свои сообщения
Вы не можете голосовать в опросах
Вы не можете прикреплять файлы к сообщениям
Вы можете скачивать файлы