Loading...
Error

Скачать Двойственные решения / Мгновенные решения / Split Decisions (Дэвид Друри / David Drury) [1988, Боевик, драма, спорт, DVDRip] [AVO] (А. Гаврилов) + Original Eng торрент без регистрации

 
Статистика раздачи
Размер:  1,58 GB   |    Скачан:  92 раза
Сидов:  1  [  0 KB/s  ]  
 
Автор Сообщение

leon030982

[] 

Двойственные решения / Мгновенные решения / Split Decisions
Год выпуска: 1988
Страна: США
Жанр: Боевик, драма, спорт
Продолжительность: 01:31:27
Перевод: Авторский (одноголосый, закадровый) [А. Гаврилов]
Cубтитры: нет
Оригинальная аудиодорожка: английская

Режиссер: Дэвид Друри / David Drury

В ролях: Крэйг Шеффер, Джефф Фэйи, Джин Хэкмен, Джон МакЛиам, Дженнифер Билз, Эдди Велес, Кармине Кариди, Джеймс Толкан, Дэвид Лабиоса, Гарри Ван Дайк.

Описание: Эдди МакГуинн, молодой многообещающий боксёр, четырёхкратный победитель турнира "Золотая перчатка", любимчик и надежда семьи, готовится под руководством своего отца к выступлению на Олимпийских Играх. Рэй, его старший брат, тоже боксер, избравший однако собственный путь в жизни и за это изгнанный отцом из дома, также готовится к поединку с крутым бандитом Педрозом. Когда ему предлагают за деньги "сдать" бой, для него и для всей его семьи наступает время принимать трудные решения.



Англоязычный DVDRip - из раздачи LiberalFascist с

Оцифровка с VHS русской аудиодорожки - budulai-8



Качество видео: DVDRip
Формат видео: AVI
Видео: 704x528 (1.33:1), 25 fps, XviD build 50 ~2038 kbps avg, 0.22 bit/pixel
Аудио 1: 48 kHz, AC3 Dolby Digital, 2/0 (L,R) ch, ~192 kbps - Rus
Аудио 2: 48 kHz, AC3 Dolby Digital, 2/0 (L,R) ch, ~224 kbps - Eng
General
Complete name : D:\Public\Split Decisions [1989] Rus, Eng.avi
Format : AVI
Format/Info : Audio Video Interleave
File size : 1.58 GiB
Duration : 1h 31mn
Overall bit rate : 2 470 Kbps
Writing application : VirtualDubMod 1.5.10.2 (build 2542/release)
Writing library : VirtualDubMod build 2542/release
Video
ID : 0
Format : MPEG-4 Visual
Format profile : Advanced Simple@L5
Format settings, BVOP : 2
Format settings, QPel : No
Format settings, GMC : No warppoints
Format settings, Matrix : Custom
Codec ID : XVID
Codec ID/Hint : XviD
Duration : 1h 31mn
Bit rate : 2 039 Kbps
Width : 704 pixels
Height : 528 pixels
Display aspect ratio : 4:3
Frame rate : 25.000 fps
Color space : YUV
Chroma subsampling : 4:2:0
Bit depth : 8 bits
Scan type : Progressive
Compression mode : Lossy
Bits/(Pixel*Frame) : 0.219
Stream size : 1.30 GiB (83%)
Writing library : XviD 1.2.1 (UTC 2008-12-04)
Audio #1
ID : 1
Format : AC-3
Format/Info : Audio Coding 3
Mode extension : CM (complete main)
Codec ID : 2000
Duration : 1h 31mn
Bit rate mode : Constant
Bit rate : 192 Kbps
Channel(s) : 2 channels
Channel positions : Front: L R
Sampling rate : 48.0 KHz
Bit depth : 16 bits
Compression mode : Lossy
Stream size : 126 MiB (8%)
Alignment : Split accross interleaves
Interleave, duration : 40 ms (1.00 video frame)
Interleave, preload duration : 500 ms
Title : Rus
Audio #2
ID : 2
Format : AC-3
Format/Info : Audio Coding 3
Mode extension : CM (complete main)
Codec ID : 2000
Duration : 1h 31mn
Bit rate mode : Constant
Bit rate : 224 Kbps
Channel(s) : 2 channels
Channel positions : Front: L R
Sampling rate : 48.0 KHz
Bit depth : 16 bits
Compression mode : Lossy
Stream size : 147 MiB (9%)
Alignment : Split accross interleaves
Interleave, duration : 40 ms (1.00 video frame)
Interleave, preload duration : 500 ms
Title : Eng



Скачать Двойственные.решения.Мгновенные.решения.Split.Decisions.(Дэвид.Друри.David.Drury).[1988.Боевик.драма.спорт.DVDRip].[AVO].(А.Гаврилов).+.Original.Eng.torrent без регистрации
Золото ЗОЛОТАЯ РАЗДАЧА! СКАЧАННОЕ НЕ ЗАСЧИТЫВАЕТСЯ! Золото
Дата: Зарегистрирован   [ Тип: внутренний ] Как тут cкачать?
MAGNET ссылка
MAGNET ссылка


Скачать .torrent

16 KB

Статус: проверено DHT
Скачан: торрент - 92 раз, раздача полностью - 1 раз
Размер: 1,58 GB
Оценка:  5 (Голосов: 1)
Поблагодарили: 0
Поделиться ссылкой на эту раздачу с друзьями:
В контактеFacebookОдноклассникиTwitterLivejournalМой МирLiveinternet
 

 
Показать сообщения:    


Вы не можете начинать темы
Вы не можете отвечать на сообщения
Вы не можете редактировать свои сообщения
Вы не можете удалять свои сообщения
Вы не можете голосовать в опросах
Вы не можете прикреплять файлы к сообщениям
Вы можете скачивать файлы