Loading...
Error

Скачать Ордер на смерть / Death warrant (Деран Сарафян / Deran Sarafian) [1990, боевик, триллер, драма, криминал, BDRip] [AVO] (Гаврилов) + [DUB] (Хлопушка) + [Subs (Rus, Eng)] торрент без регистрации

 
Статистика раздачи
Размер:  1,47 GB   |    Скачан:  119 раз
Сидов:  1  [  0 KB/s  ]  
 
Автор Сообщение

leon030982

[] 

Ордер на смерть / Death warrant



Год выпуска: 1990
Страна: Канада, США
Жанр: боевик, триллер, драма, криминал
Продолжительность: 01:29:03
Перевод #1: Авторский (одноголосый)[А.Гаврилов]
Перевод #2: Профессиональный (дублированный)[Хлопушка]
Cубтитры: Русские, Английские (внешние .srt)
Режиссер: Деран Сарафян / Deran Sarafian

В ролях: Жан-Клод Ван Дамм, Роберт Гийом, Синтия Гибб, Джордж Дикерсон, Арт ЛаФлёр, Пэтрик Килпэтрик, Джошуа Джон Миллер, Хэнк Стоун, Конрад Данн, Джек Бэннон


Ван Дамм в роли офицера Луиса Берка, «нечистого на руку» полицейского детектива, отправляется под видом осужденного в тюрьму «Харрисон», чтобы раскрыть серию убийств заключенных. В стенах тюрьмы он сталкивается с жестокостью сокамерников, с коррумпированными охранниками, со смертью и предательством всех мастей.



Качество: BDRip [Исх: Blu-ray / 1080p]
Формат: AVI
Видео кодек: XviD
Аудио кодек: AC3
Видео: 704x384 (1.83:1), 23.976 fps, XviD build 65 ~1934 kbps avg, 0.30 bit/pixel
Аудио #1: 48 kHz, AC3 Dolby Digital, 2/0 (L,R), ~192.00 kbps avg [AVO]
Аудио #1: 48 kHz, AC3 Dolby Digital, 2/0 (L,R), ~224.00 kbps avg [DUB]

Исходный видеоряд от kingsize87 --- Спасибо!
За исходник дублированной дороги Хлопушка спасибо metall210 и koh-ka с тру.
Гаврилов с релиза HQCLUB
General
Complete name : E:\INTERNET\Death Warrant.1990.BDRip.[AVO]+[DUB]+Sub(Rus,Eng)\Death Warrant.1990.BDRip.[AVO]+[DUB]+Sub(Rus,Eng).avi
Format : AVI
Format/Info : Audio Video Interleave
File size : 1.47 GiB
Duration : 1h 29mn
Overall bit rate : 2 365 Kbps
Writing application : VirtualDubMod 1.5.10.3 (build 2550/release)
Writing library : VirtualDubMod build 2550/release

Video
ID : 0
Format : MPEG-4 Visual
Format profile : Advanced Simple@L5
Format settings, BVOP : 1
Format settings, QPel : No
Format settings, GMC : No warppoints
Format settings, Matrix : Custom
Codec ID : XVID
Codec ID/Hint : XviD
Duration : 1h 29mn
Bit rate : 1 935 Kbps
Width : 704 pixels
Height : 384 pixels
Display aspect ratio : 16:9
Frame rate : 23.976 fps
Color space : YUV
Chroma subsampling : 4:2:0
Bit depth : 8 bits
Scan type : Progressive
Compression mode : Lossy
Bits/(Pixel*Frame) : 0.299
Stream size : 1.20 GiB (82%)
Writing library : XviD 65

Audio #1
ID : 1
Format : AC-3
Format/Info : Audio Coding 3
Mode extension : CM (complete main)
Codec ID : 2000
Duration : 1h 29mn
Bit rate mode : Constant
Bit rate : 192 Kbps
Channel(s) : 2 channels
Channel positions : Front: L R
Sampling rate : 48.0 KHz
Bit depth : 16 bits
Compression mode : Lossy
Stream size : 122 MiB (8%)
Alignment : Split accross interleaves
Interleave, duration : 42 ms (1.00 video frame)
Interleave, preload duration : 500 ms

Audio #2
ID : 2
Format : AC-3
Format/Info : Audio Coding 3
Mode extension : CM (complete main)
Codec ID : 2000
Duration : 1h 29mn
Bit rate mode : Constant
Bit rate : 224 Kbps
Channel(s) : 2 channels
Channel positions : Front: L R
Sampling rate : 48.0 KHz
Bit depth : 16 bits
Compression mode : Lossy
Stream size : 143 MiB (9%)
Alignment : Split accross interleaves
Interleave, duration : 42 ms (1.00 video frame)
Interleave, preload duration : 500 ms



Скачать Ордер.на.смерть.Death.warrant.(Деран.Сарафян.Deran.Sarafian).[1990.боевик.триллер.драма.криминал.BDRip].[AVO].(Гаврилов).+.[DUB].(Хлопушка).+.[Subs.(Rus.Eng)].torrent без регистрации
Золото ЗОЛОТАЯ РАЗДАЧА! СКАЧАННОЕ НЕ ЗАСЧИТЫВАЕТСЯ! Золото
Дата: Зарегистрирован   [ Тип: внутренний ] Как тут cкачать?
MAGNET ссылка
MAGNET ссылка


Скачать .torrent

15 KB

Статус: проверено DHT
Скачан: торрент - 119 раз, раздача полностью - 2 раз
Размер: 1,47 GB
Оценка:  5 (Голосов: 1)
Поблагодарили: 1
Поделиться ссылкой на эту раздачу с друзьями:
В контактеFacebookОдноклассникиTwitterLivejournalМой МирLiveinternet
 

 
Показать сообщения:    


Вы не можете начинать темы
Вы не можете отвечать на сообщения
Вы не можете редактировать свои сообщения
Вы не можете удалять свои сообщения
Вы не можете голосовать в опросах
Вы не можете прикреплять файлы к сообщениям
Вы можете скачивать файлы