Loading...
Error

Скачать Самолет президента ( Борт №1 ) / Air Force One (Вольфганг Петерсен / Wolfgang Petersen) [1997 г., Боевик, триллер, драма, HDRip] 3x[AVO] (А.Гаврилов, Ю.Живов, Е.Хрусталев) + original eng торрент без регистрации

 
Статистика раздачи
Размер:  2,95 GB   |    Скачан:  121 раз
Сидов:  1  [  0 KB/s  ]  
 
Автор Сообщение

leon030982

[] 

Самолет президента / Air Force One


Год выпуска: 1997
Страна: США, Германия
Жанр: боевик, триллер, драма, приключения
Продолжительность: 02:04:35
Перевод №1: Авторский (одноголосый) [А.Гаврилов]
Перевод №2:Авторский (одноголосый) [Ю.Живов]
Перевод №3:Авторский (одноголосый) [Е.Хрусталев]
Оригинальный аудиопоток: Английский
Субтитры: нет

Режиссер: Вольфганг Петерсен


Харрисон Форд, Гари Олдман, Венди Крюсон, Пол Гилфойл, Уильям Х. Мэйси, Лизель Мэтьюз, Дин Стокуэлл, Ксандер Беркли, Билл Смитрович, Илья Баскин, Давид Вадим, Том Эверетт, Спенсер Гаррет, Филип Бейкер Холл, Донна Баллок, Дэвид Джанопулос, Дон МакМанус, Гленн Моршауэр, Гленн Клоуз


Описание: Самолет президента — самый охраняемый объект ВВС США. Президент возвращается с переговоров в Москве вместе с семьей и администрацией. Но едва самолет поднимается в воздух, его захватывает группа террористов, которыми руководит непримиримый коммунист Коршунов. Он угрожает убить заложников, если их лидер, генерал Радек, заключенный в тюрьму, не будет освобожден. Президенту приходится бороться за жизнь близких ему людей и за будущее человечества.



Качество: HDRip
Формат: AVI
Видео кодек: XviD
Аудио кодек: AC3
Видео: 720x304, 1833 kbps, 23.976 fps, 0.35 bit/pixel
Аудио #1: Dolby AC3 48000Hz 6ch 448Kbps [А.Гаврилов]
Аудио #2: Dolby AC3 48000Hz 6ch 448Kbps [Ю.Живов]
Аудио #3: Dolby AC3 48000Hz stereo 192Kbps [Е.Хрусталев]
Аудио #4: Dolby AC3 48000Hz 6ch 448Kbps [Оригинал]
За видео спасибо --- DaniLch
За дорожки спасибо --- PetrRomanov

Релиз от Consul
General
Complete name : E:\INTERNET\Samolet prezidenta.1997.HDRip.avi
Format : AVI
Format/Info : Audio Video Interleave
Format profile : OpenDML
File size : 2.95 GiB
Duration : 2h 4mn
Overall bit rate : 3 395 Kbps
Writing application : VirtualDubModRus 1.5.10.2 (build 2542/release)
Writing library : VirtualDubMod build 2542/release

Video
ID : 0
Format : MPEG-4 Visual
Format profile : Advanced Simple@L5
Format settings, BVOP : 1
Format settings, QPel : No
Format settings, GMC : No warppoints
Format settings, Matrix : Custom
Codec ID : XVID
Codec ID/Hint : XviD
Duration : 2h 4mn
Bit rate : 1 833 Kbps
Width : 720 pixels
Height : 304 pixels
Display aspect ratio : 2.35:1
Frame rate : 23.976 fps
Color space : YUV
Chroma subsampling : 4:2:0
Bit depth : 8 bits
Scan type : Progressive
Compression mode : Lossy
Bits/(Pixel*Frame) : 0.349
Stream size : 1.59 GiB (54%)
Writing library : XviD 1.2.1 (UTC 2008-12-04)

Audio #1
ID : 1
Format : AC-3
Format/Info : Audio Coding 3
Mode extension : CM (complete main)
Codec ID : 2000
Duration : 2h 4mn
Bit rate mode : Constant
Bit rate : 448 Kbps
Channel(s) : 6 channels
Channel positions : Front: L C R, Side: L R, LFE
Sampling rate : 48.0 KHz
Bit depth : 16 bits
Compression mode : Lossy
Stream size : 399 MiB (13%)
Alignment : Split accross interleaves
Interleave, duration : 42 ms (1.00 video frame)
Title : AVO

Audio #2
ID : 2
Format : AC-3
Format/Info : Audio Coding 3
Mode extension : CM (complete main)
Codec ID : 2000
Duration : 2h 4mn
Bit rate mode : Constant
Bit rate : 448 Kbps
Channel(s) : 6 channels
Channel positions : Front: L C R, Side: L R, LFE
Sampling rate : 48.0 KHz
Bit depth : 16 bits
Compression mode : Lossy
Stream size : 399 MiB (13%)
Alignment : Split accross interleaves
Interleave, duration : 42 ms (1.00 video frame)
Title : AVO

Audio #3
ID : 3
Format : AC-3
Format/Info : Audio Coding 3
Mode extension : CM (complete main)
Codec ID : 2000
Duration : 2h 4mn
Bit rate mode : Constant
Bit rate : 192 Kbps
Channel(s) : 2 channels
Channel positions : Front: L R
Sampling rate : 48.0 KHz
Bit depth : 16 bits
Compression mode : Lossy
Stream size : 171 MiB (6%)
Alignment : Split accross interleaves
Interleave, duration : 42 ms (1.00 video frame)
Title : AVO

Audio #4
ID : 4
Format : AC-3
Format/Info : Audio Coding 3
Mode extension : CM (complete main)
Codec ID : 2000
Duration : 2h 4mn
Bit rate mode : Constant
Bit rate : 448 Kbps
Channel(s) : 6 channels
Channel positions : Front: L C R, Side: L R, LFE
Sampling rate : 48.0 KHz
Bit depth : 16 bits
Compression mode : Lossy
Stream size : 399 MiB (13%)
Alignment : Split accross interleaves
Interleave, duration : 42 ms (1.00 video frame)
Title : Îðèãèíàë



Скачать Самолет.президента.(.Борт.№1.).Air.Force.One.(Вольфганг.Петерсен.Wolfgang.Petersen).[1997.г.Боевик.триллер.драма.HDRip].3x[AVO].(А.Гаврилов.Ю.Живов.Е.Хрусталев).+.original.eng.torrent без регистрации
Золото ЗОЛОТАЯ РАЗДАЧА! СКАЧАННОЕ НЕ ЗАСЧИТЫВАЕТСЯ! Золото
Дата: Зарегистрирован   [ Тип: внутренний ] Как тут cкачать?
MAGNET ссылка
MAGNET ссылка


Скачать .torrent

15 KB

Статус: проверено DHT
Скачан: торрент - 121 раз, раздача полностью - 0 раз
Размер: 2,95 GB
Оценка:  5 (Голосов: 1)
Поблагодарили: 1
Поделиться ссылкой на эту раздачу с друзьями:
В контактеFacebookОдноклассникиTwitterLivejournalМой МирLiveinternet
 

 
Показать сообщения:    


Вы не можете начинать темы
Вы не можете отвечать на сообщения
Вы не можете редактировать свои сообщения
Вы не можете удалять свои сообщения
Вы не можете голосовать в опросах
Вы не можете прикреплять файлы к сообщениям
Вы можете скачивать файлы