Loading...
Error

Скачать Легенда о пианисте / La Leggenda Del Pianista Sull'Oceano (Джузеппе Торнаторе) [1998, драма, мелодрама, музыка, BDRip-AVC] [Полная версия] [AVO] (Ю.Сербин) + Subs (Rus, Eng) торрент без регистрации

 
Статистика раздачи
Размер:  3,74 GB   |    Скачан:  104 раза
Сидов:  1  [  0 KB/s  ]  
 
Автор Сообщение

leon030982

[] 

Легенда о пианисте / La Leggenda Del Pianista Sull'Oceano


Год выпуска: 1998
Страна: Италия
Жанр: фэнтези, мелодрама, драма, музыка
Продолжительность: 02:49:44
Перевод: Авторский (одноголосый, закадровый)[Ю.Сербин]
Субтитры: русские, английские
Режиссер: Джузеппе Торнаторе / Giuseppe Tornatore
В ролях: Тим Рот, Прюитт Тэйлор Винс, Мелани Тьерри, Билл Нанн, Кларенс Уильямс III, Питер Воэн, Ниал О`Брайэн, Габриэль Лавиа, Вернон Нерс, Альберто Васкес
Описание: Началось все с того, что в первый день 20-го столетия на пароходе «Вирджиния» в коробке из-под лимонов был найден младенец. Мальчик вырос и провел всю свою жизнь на громадном океанском лайнере, курсирующем между Америкой и Европой, ни разу не сойдя на берег.
Загадочным образом научившись играть на рояле, Дэнни Будманн Т. Д. Лемон 1900-й стал настоящим виртуозом и развлекал публику, играя в ресторанном оркестре. С ним связаны потрясающие истории, а его жизнь превратилась в красивую легенду…


Качество видео: BDRip-AVC (исходник La Leggenda Del Pianista Sull'Oceano 1998 Blu-ray ITA 1080p VC-1 DTS-HD MA 5.1-EbP (tnx Adri) )
Формат видео: MKV
Видео кодек: MPEG-4 AVC / H.264
Аудио кодек: AC3
Видео: 1168x496 at 23.976 fps, x264@L4.1, ~2703 kbps avg
Аудио: 48 kHz, AC3 Dolby Digital, 3/2 (L,C,R,l,r) + LFE ch, ~448.00 kbps avg [AVO]
"Премия ""Золотой Глобус"" (2000 г.).
Премия Европейского международного фестиваля за лучшую операторскую работу.
6 премий ""Дэвид ди Донателло"", включая премию за лучшую режиссуру.
6 премий Итальянского Национального Синдиката киножурналистов, включая лучшую режиссуру и сценарий."
Формат : Matroska
Версия формата : Version 4 / Version 2
Размер файла : 3,74 Гбайт
Продолжительность : 2 ч. 49 м.
Общий поток : 3153 Кбит/сек
Название фильма : La Leggenda Del Pianista Sull'Oceano.Full.BDRip-AVC.Serbin
Дата кодирования : UTC 2013-10-26 00:07:10
Программа кодирования : mkvmerge v6.4.1 ('Omega Point') built on Sep 16 2013 22:05:10
Библиотека кодирования : libebml v1.3.0 + libmatroska v1.4.1

Видео
Идентификатор : 1
Формат : AVC
Формат/Информация : Advanced Video Codec
Профиль формата : High@L4.1
Параметр CABAC формата : Да
Параметр ReFrames формата : 10 кадров
Идентификатор кодека : V_MPEG4/ISO/AVC
Продолжительность : 2 ч. 49 м.
Битрейт : 2642 Кбит/сек
Ширина : 1168 пикселей
Высота : 496 пикселей
Соотношение сторон : 2,35:1
Режим частоты кадров : Постоянный
Частота кадров : 23,976 кадра/сек
Цветовое пространство : YUV
Субдискретизация насыщенности : 4:2:0
Битовая глубина : 8 бит
Тип развёртки : Прогрессивная
Бит/(Пиксели*Кадры) : 0.190
Размер потока : 3,13 Гбайт (84%)
Заголовок : La Leggenda Del Pianista Sull'Oceano.Full.BDRip-AVC.Serbin
Библиотека кодирования : x264 core 114 r1913 5fd3dce
Настройки программы : cabac=1 / ref=10 / deblock=1:-3:-3 / analyse=0x3:0x113 / me=umh / subme=10 / psy=1 / psy_rd=1.20:0.00 / mixed_ref=1 / me_range=48 / chroma_me=1 / trellis=2 / 8x8dct=1 / cqm=0 / deadzone=21,11 / fast_pskip=0 / chroma_qp_offset=-2 / threads=6 / sliced_threads=0 / nr=0 / decimate=0 / interlaced=0 / constrained_intra=0 / bframes=12 / b_pyramid=2 / b_adapt=2 / b_bias=0 / direct=1 / weightb=1 / open_gop=0 / weightp=2 / keyint=250 / keyint_min=23 / scenecut=40 / intra_refresh=0 / rc_lookahead=40 / rc=crf / mbtree=0 / crf=18.0 / qcomp=0.65 / qpmin=0 / qpmax=69 / qpstep=4 / vbv_maxrate=50000 / vbv_bufsize=62500 / crf_max=0.0 / nal_hrd=none / ip_ratio=1.40 / pb_ratio=1.30 / aq=2:0.70
Язык : Italian
Default : Нет
Forced : Нет

Аудио
Идентификатор : 2
Формат : AC-3
Формат/Информация : Audio Coding 3
Расширение режима : CM (complete main)
Параметр Endianness формата : Big
Идентификатор кодека : A_AC3
Продолжительность : 2 ч. 49 м.
Вид битрейта : Постоянный
Битрейт : 448 Кбит/сек
Каналы : 6 каналов
Расположение каналов : Front: L C R, Side: L R, LFE
Частота : 48,0 КГц
Битовая глубина : 16 бит
Метод сжатия : С потерями
Размер потока : 544 Мбайт (14%)
Заголовок : Serbin AC3 5.1@448 kbps
Язык : Russian
Default : Да
Forced : Нет

Текст #1
Идентификатор : 3
Формат : UTF-8
Идентификатор кодека : S_TEXT/UTF8
Идентификатор кодека/Информация : UTF-8 Plain Text
Язык : Russian
Default : Нет
Forced : Нет

Текст #2
Идентификатор : 4
Формат : UTF-8
Идентификатор кодека : S_TEXT/UTF8
Идентификатор кодека/Информация : UTF-8 Plain Text
Язык : English
Default : Нет
Forced : Нет
Наложение голоса dsk71. .
Перевод у Юрия Сербина состоялся благодаря спонсорам трех сайтов:

- xerman13, dsk71, Zarja87, tide, olegsoleg, Luka69, HPotter, denismgn1987, Dervish, dicka2000, Baron0580, tambov68, balloo, Magal
Е180 - safreks, Ramis, пуля, anton966, ilbilb, Daniel Rock, GVR232, dir, Linnan, Bilko, urassiks, carnivale

Пиратка - - Jigsaw, Savinex, gemini, Letyoha3, Джосс, Guyver, Analaral
За видео файл спасибо Enclave76.



Скачать Легенда.о.пианисте.La.Leggenda.Del.Pianista.Sull'Oceano.(Джузеппе.Торнаторе).[1998.драма.мелодрама.музыка.BDRip-AVC].[Полная.версия].[AVO].(Ю.Сербин).+.Subs.(Rus.Eng).torrent без регистрации
Золото ЗОЛОТАЯ РАЗДАЧА! СКАЧАННОЕ НЕ ЗАСЧИТЫВАЕТСЯ! Золото
Дата: Зарегистрирован   [ Тип: внутренний ] Как тут cкачать?
MAGNET ссылка
MAGNET ссылка


Скачать .torrent

19 KB

Статус: проверено DHT
Скачан: торрент - 104 раз, раздача полностью - 0 раз
Размер: 3,74 GB
Оценка:  5 (Голосов: 1)
Поблагодарили: 2
Поделиться ссылкой на эту раздачу с друзьями:
В контактеFacebookОдноклассникиTwitterLivejournalМой МирLiveinternet
 

 
Показать сообщения:    


Вы не можете начинать темы
Вы не можете отвечать на сообщения
Вы не можете редактировать свои сообщения
Вы не можете удалять свои сообщения
Вы не можете голосовать в опросах
Вы не можете прикреплять файлы к сообщениям
Вы можете скачивать файлы