Loading...
Error

Скачать Атлантик Сити / Atlantic City (Луи Малль / Louis Malle) [1980 г., Триллер, Детектив, DVDRip-AVC ] [MVO] + [DUB] + [AVO] (Гаврилов) торрент без регистрации

 
Статистика раздачи
Размер:  2,17 GB   |    Скачан:  107 раз
Сидов:  1  [  0 KB/s  ]  
 
Автор Сообщение

leon030982

[] 

Атлантик Сити / Atlantic City


Год выхода: 1980
Жанр: мелодрама, драма, криминал
Страна: Канада, Франция, США
Студия: International Cinema Corporation (ICC), Selta Films, Canadian Film Development Corporation (CFDC)
Продолжительность: 01:43:42
Перевод #1: Профессиональный (многоголосый, закадровый)
Перевод #2: Дубляж [Cоветский]
Перевод #3: Авторский (одноголосный) [А.Гаврилов]
Субтитры:
1) Английские, VobSub
2) Русские, VobSub (полные)
3) Русские, VobSub (только перевод членов команды фильма в самом начале, включены по умолчанию)

Режиссер: Луи Маль / Louis Malle

В ролях: Берт Ланкастер, Сьюзен Сарандон, Мишель Пикколи, Холлис МакЛарен, Роберт Джой, Моузас Знеймер, Роббер Гуле, Эл Уоксмен, Кейт Рид, Энгус МакИннес

О фильме:
Гангстер Лу ушел на покой и живет в Атлантик-Сити, такой же, как и Лас-Вегас, столице американского игорного бизнеса. Но жизнь Лу круто меняется, когда он знакомится с проходимцем Дэйвом, укравшем наркотики у мафии, и его бывшей женой Сэлли, работающей в устричном баре казино Атлантик-Сити...




Качество: DVDRip-AVC
Формат: MKV
Видео кодек: h.264
Аудио кодек: AC3
Видео: 720x480 (16:9) @ 854x480 (анаморф), 23.976 fps, AVC, ~2608 Kbps, 0.315 bits/pixel
Аудио №1: Русский, 48.0 KHz, AC3, 1 ch, 96.0 Kbps (Профессиональный (многоголосный закадровый,лицензия R5)
Аудио №2: Английский, 48.0 KHz, AC3, 1 ch, 96.0 Kbps
Аудио №3: Русский 48.0 KHz, AC3, 1 ch, 96.0 Kbps (Дубляж)
Аудио №4: Русский 48.0 KHz, AC3, 1 ch, 96.0 Kbps (Авторский одноголосный, Гаврилов)
Общее
Уникальный идентификатор : 197981606503093774215922188995420451510 (0x94F1DED52B959876B003FA46E18B72B6)
Полное имя : D:FilmsAtlantik Siti.1980.DVDrip-AVC.mkv
Формат : Matroska
Версия формата : Version 4 / Version 2
Размер файла : 2,17 Гбайт
Продолжительность : 1 ч. 43 м.
Общий поток : 2999 Кбит/сек
Дата кодирования : UTC 2013-02-02 05:45:12
Программа кодирования : mkvmerge v6.0.0 ('Coming Up For Air') built on Jan 20 2013 09:52:00
Библиотека кодирования : libebml v1.3.0 + libmatroska v1.4.0

Видео
Идентификатор : 1
Формат : AVC
Формат/Информация : Advanced Video Codec
Профиль формата : High@L4.1
Параметр CABAC формата : Да
Параметр ReFrames формата : 8 кадров
Идентификатор кодека : V_MPEG4/ISO/AVC
Продолжительность : 1 ч. 43 м.
Битрейт : 2608 Кбит/сек
Ширина : 720 пикселей
Высота : 480 пикселей
Соотношение сторон : 16:9
Режим частоты кадров : Постоянный
Частота кадров : 23,976 кадра/сек
Стандарт вещания : NTSC
Цветовое пространство : YUV
Субдискретизация насыщенности : 4:2:0
Битовая глубина : 8 бит
Тип развёртки : Прогрессивная
Бит/(Пиксели*Кадры) : 0.315
Размер потока : 1,85 Гбайт (85%)
Библиотека кодирования : x264 core 129 r2230 1cffe9f
Настройки программы : cabac=1 / ref=8 / deblock=1:0:0 / analyse=0x3:0x133 / me=umh / subme=9 / psy=1 / psy_rd=1.00:0.15 / mixed_ref=1 / me_range=16 / chroma_me=1 / trellis=2 / 8x8dct=1 / cqm=0 / deadzone=21,11 / fast_pskip=1 / chroma_qp_offset=-3 / threads=12 / lookahead_threads=2 / sliced_threads=0 / nr=0 / decimate=1 / interlaced=0 / bluray_compat=0 / constrained_intra=0 / bframes=3 / b_pyramid=2 / b_adapt=2 / b_bias=0 / direct=3 / weightb=1 / open_gop=0 / weightp=2 / keyint=240 / keyint_min=23 / scenecut=40 / intra_refresh=0 / rc_lookahead=60 / rc=2pass / mbtree=1 / bitrate=2608 / ratetol=1.0 / qcomp=0.60 / qpmin=0 / qpmax=69 / qpstep=4 / cplxblur=20.0 / qblur=0.5 / ip_ratio=1.40 / aq=1:1.00
Default : Нет
Forced : Нет
Коэффициенты матрицы : BT.601

Аудио #1
Идентификатор : 2
Формат : AC-3
Формат/Информация : Audio Coding 3
Расширение режима : CM (complete main)
Параметр Endianness формата : Big
Идентификатор кодека : A_AC3
Продолжительность : 1 ч. 43 м.
Вид битрейта : Постоянный
Битрейт : 96,0 Кбит/сек
Каналы : 1 канал
Расположение каналов : Front: C
Частота : 48,0 КГц
Битовая глубина : 16 бит
Метод сжатия : С потерями
Размер потока : 71,2 Мбайт (3%)
Язык : English
Default : Нет
Forced : Нет

Аудио #2
Идентификатор : 3
Формат : AC-3
Формат/Информация : Audio Coding 3
Расширение режима : CM (complete main)
Параметр Endianness формата : Big
Идентификатор кодека : A_AC3
Продолжительность : 1 ч. 43 м.
Вид битрейта : Постоянный
Битрейт : 96,0 Кбит/сек
Каналы : 1 канал
Расположение каналов : Front: C
Частота : 48,0 КГц
Битовая глубина : 16 бит
Метод сжатия : С потерями
Размер потока : 71,2 Мбайт (3%)
Язык : Russian
Default : Да
Forced : Нет

Аудио #3
Идентификатор : 4
Формат : AC-3
Формат/Информация : Audio Coding 3
Расширение режима : CM (complete main)
Параметр Endianness формата : Big
Идентификатор кодека : A_AC3
Продолжительность : 1 ч. 43 м.
Вид битрейта : Постоянный
Битрейт : 96,0 Кбит/сек
Каналы : 1 канал
Расположение каналов : Front: C
Частота : 48,0 КГц
Битовая глубина : 16 бит
Метод сжатия : С потерями
Размер потока : 71,2 Мбайт (3%)
Язык : Russian
Default : Нет
Forced : Нет

Аудио #4
Идентификатор : 5
Формат : AC-3
Формат/Информация : Audio Coding 3
Расширение режима : CM (complete main)
Параметр Endianness формата : Big
Идентификатор кодека : A_AC3
Продолжительность : 1 ч. 43 м.
Вид битрейта : Постоянный
Битрейт : 96,0 Кбит/сек
Каналы : 1 канал
Расположение каналов : Front: C
Частота : 48,0 КГц
Битовая глубина : 16 бит
Метод сжатия : С потерями
Размер потока : 71,2 Мбайт (3%)
Язык : Russian
Default : Нет
Forced : Нет

Текст #1
Идентификатор : 6
Формат : VobSub
Режим смешивания : zlib
Идентификатор кодека : S_VOBSUB
Идентификатор кодека/Информация : The same subtitle format used on DVDs
Язык : English
Default : Нет
Forced : Нет

Текст #2
Идентификатор : 7
Формат : VobSub
Режим смешивания : zlib
Идентификатор кодека : S_VOBSUB
Идентификатор кодека/Информация : The same subtitle format used on DVDs
Язык : Russian
Default : Нет
Forced : Нет

Текст #3
Идентификатор : 8
Формат : VobSub
Режим смешивания : zlib
Идентификатор кодека : S_VOBSUB
Идентификатор кодека/Информация : The same subtitle format used on DVDs
Язык : Russian
Default : Да
Forced : Нет

Меню
00:00:00.000 : en:Chapter 01
00:02:11.567 : en:Chapter 02
00:08:41.067 : en:Chapter 03
00:15:00.134 : en:Chapter 04
00:18:47.868 : en:Chapter 05
00:23:06.569 : en:Chapter 06
00:26:45.569 : en:Chapter 07
00:31:24.036 : en:Chapter 08
00:36:23.570 : en:Chapter 09
00:40:24.538 : en:Chapter 10
00:42:41.705 : en:Chapter 11
00:48:55.673 : en:Chapter 12
00:52:55.507 : en:Chapter 13
00:57:47.241 : en:Chapter 14
01:04:09.741 : en:Chapter 15
01:08:25.141 : en:Chapter 16
01:15:25.075 : en:Chapter 17
01:22:53.776 : en:Chapter 18
01:24:53.243 : en:Chapter 19
01:29:28.443 : en:Chapter 20
01:31:16.943 : en:Chapter 21
01:34:15.911 : en:Chapter 22
Исходник видео - раздача от bobrm2(Большое Спасибо)= (лучшее качество видео R1 + синхр. Гаврилов + изготовл. субтитры)=мой релиз + дорожки с лицензии (дубляж и моногоголоска). Все дорожки 192 kbps изначально были двойное моно, поэтому bobrm2 перекодировал их в чистое моно 96 kbps без потери качества.


Релиз от: Temperest



Скачать Атлантик.Сити.Atlantic.City.(Луи.Малль.Louis.Malle).[1980.г.Триллер.Детектив.DVDRip-AVC.].[MVO].+.[DUB].+.[AVO].(Гаврилов).torrent без регистрации
Золото ЗОЛОТАЯ РАЗДАЧА! СКАЧАННОЕ НЕ ЗАСЧИТЫВАЕТСЯ! Золото
Дата: Зарегистрирован   [ Тип: внутренний ] Как тут cкачать?
MAGNET ссылка
MAGNET ссылка


Скачать .torrent

12 KB

Статус: проверено DHT
Скачан: торрент - 107 раз, раздача полностью - 0 раз
Размер: 2,17 GB
Оценка:  - (Голосов: 0)
Поблагодарили: 0
Поделиться ссылкой на эту раздачу с друзьями:
В контактеFacebookОдноклассникиTwitterLivejournalМой МирLiveinternet
 

 
Показать сообщения:    


Вы не можете начинать темы
Вы не можете отвечать на сообщения
Вы не можете редактировать свои сообщения
Вы не можете удалять свои сообщения
Вы не можете голосовать в опросах
Вы не можете прикреплять файлы к сообщениям
Вы можете скачивать файлы