Loading...
Error

Скачать Тень / The Shadow (Рассел Малкэй) [1994, фэнтези, боевик, триллер, криминал, детектив, приключения, комикс, BDRip-AVC] [MVO]+[Оригинал]+[Sub]x2 торрент без регистрации

 
Статистика раздачи
Размер:  4,89 GB   |    Скачан:  100 раз

Полного источника не было: 21 минута

 
Автор Сообщение

Marsianka

[] 

Тень / The Shadow (1994) BDRip-AVC | P


Название: Тень
Оригинальное название: The Shadow
Год выхода: 1994
Жанр: фэнтези, боевик, триллер, криминал, детектив, приключения, комикс
Режиссер: Рассел Малкэй
В ролях: Алек Болдуин, Джон Лоун, Пенелопа Энн Миллер, Питер Бойл, Иэн МакКеллен, Тим Карри, Джонатан Уинтерс, Саб Симоно, Андре Грегори, Брэйди Цурутани

О фильме:
После пребывания в буддийском монастыре, бывший беспощадный правитель огромной наркоимперии, а ныне добропорядочный гражданин, скрыв лицо под маской, борется со злом в самом страшном городе мира - Нью-Йорке. Но вот у него появляется соперник не менее могущественный чем он сам - потомок Чингисхана, стремящийся подчинить себе весь мир...



Страна: США
Студия: Universal Pictures
Продолжительность: 01:47:25
Перевод: Русский профессиональный многоголосый закадровый

Файл
Кодек: H.264
Качество: BDRip-AVC
Видео: 960x520 (1.85:1) at 23.976 fps, AVC at 5680 kbps
1: АС3 5.1 448 kbps - Русский профессиональный многоголосый закадровый (Amalgama)
2: АС3 5.1 384 kbps - Английский
Субтитры: Русские, Английские

General
Unique ID : 193192985359751991533261678637668184105 (0x91579D95030BC290A6335FBEDB193029)
Complete name : C:CREATE480outThe Shadow.1994.HDRip-AVC.P.mkv
Format : Matroska
Format version : Version 4 / Version 2
File size : 4.89 GiB
Duration : 1h 47mn
Overall bit rate : 6 509 Kbps
Movie name : The Shadow (1994)
Encoded date : UTC 2014-03-16 17:14:04
Writing application : mkvmerge v6.8.0 ('Theme for Great Cities') 64bit built on Mar 2 2014 21:34:26
Writing library : libebml v1.3.0 + libmatroska v1.4.1
Attachment : Yes

Video
ID : 1
Format : AVC
Format/Info : Advanced Video Codec
Format profile : High@L4.1
Format settings, CABAC : Yes
Format settings, ReFrames : 9 frames
Codec ID : V_MPEG4/ISO/AVC
Duration : 1h 47mn
Bit rate : 5 548 Kbps
Width : 960 pixels
Height : 520 pixels
Display aspect ratio : 1.85:1
Frame rate mode : Constant
Frame rate : 23.976 fps
Color space : YUV
Chroma subsampling : 4:2:0
Bit depth : 8 bits
Scan type : Progressive
Bits/(Pixel*Frame) : 0.464
Stream size : 4.17 GiB (85%)
Title : The Shadow (1994)
Writing library : x264 core 140 r2377+40 929f149 tMod [8-bit@4:2:0 X86_64]
Encoding settings : cabac=1 / ref=10 / deblock=1:-3:-3 / analyse=0x3:0x133 / me=umh / subme=11 / psy=1 / fade_compensate=0.40 / psy_rd=1.00:0.20 / mixed_ref=1 / me_range=32 / chroma_me=1 / trellis=2 / 8x8dct=1 / cqm=0 / deadzone=21,11 / fast_pskip=0 / chroma_qp_offset=-3 / threads=12 / lookahead_threads=3 / sliced_threads=0 / nr=0 / decimate=0 / interlaced=0 / bluray_compat=0 / constrained_intra=0 / fgo=0 / bframes=12 / b_pyramid=1 / b_adapt=2 / b_bias=0 / direct=1 / weightb=1 / open_gop=0 / weightp=2 / keyint=250 / keyint_min=23 / scenecut=40 / intra_refresh=0 / rc_lookahead=120 / rc=crf / mbtree=1 / crf=18.0000 / qcomp=0.65 / qpmin=0:0:0 / qpmax=69:69:69 / qpstep=4 / vbv_maxrate=62500 / vbv_bufsize=50000 / crf_max=0.0 / nal_hrd=none / filler=0 / ip_ratio=1.30 / aq=4:0.90 / aq-sensitivity=10.00 / aq-factor=1.00:1.00:1.00 / aq2=0 / aq3=0
Language : English
Default : Yes
Forced : No
Matrix coefficients : BT.709

Audio #1
ID : 2
Format : AC-3
Format/Info : Audio Coding 3
Mode extension : CM (complete main)
Format settings, Endianness : Big
Codec ID : A_AC3
Duration : 1h 47mn
Bit rate mode : Constant
Bit rate : 448 Kbps
Channel(s) : 6 channels
Channel positions : Front: L C R, Side: L R, LFE
Sampling rate : 48.0 KHz
Bit depth : 16 bits
Compression mode : Lossy
Stream size : 345 MiB (7%)
Title : MVO Amalgama
Language : Russian
Default : Yes
Forced : No

Audio #2
ID : 3
Format : AC-3
Format/Info : Audio Coding 3
Mode extension : CM (complete main)
Format settings, Endianness : Big
Codec ID : A_AC3
Duration : 1h 47mn
Bit rate mode : Constant
Bit rate : 384 Kbps
Channel(s) : 6 channels
Channel positions : Front: L C R, Side: L R, LFE
Sampling rate : 48.0 KHz
Bit depth : 16 bits
Compression mode : Lossy
Stream size : 295 MiB (6%)
Title : Original
Language : English
Default : No
Forced : No

Text #1
ID : 4
Format : UTF-8
Codec ID : S_TEXT/UTF8
Codec ID/Info : UTF-8 Plain Text
Title : Subtitle Russian
Language : Russian
Default : No
Forced : No

Text #2
ID : 5
Format : UTF-8
Codec ID : S_TEXT/UTF8
Codec ID/Info : UTF-8 Plain Text
Title : Subtitle English
Language : English
Default : No
Forced : No

Menu
00:00:00.000 : en:01. Main Titles: The Butcher of Lhasa
00:08:21.959 : en:02. The Weed of Crime
00:16:01.627 : en:03. The Cobalt Club
00:22:49.868 : en:04. The Coming of the Connection
00:28:55.984 : en:05. The Bronzium Connection
00:33:52.697 : en:06. The Call of Shiwan Khan
00:42:33.717 : en:07. An Assault on the War Department
00:46:27.326 : en:08. To Kill a Shadow
00:51:38.053 : en:09. That Knife...
00:55:52.682 : en:10. The Evil Within
01:00:34.213 : en:11. The Shadow Submerged
01:09:25.786 : en:12. The Shadow Strikes
01:13:57.182 : en:13. Prisoner of the Phurba?
01:20:12.098 : en:14. The Orb of Oblivian
01:31:10.798 : en:15. Mirrors of the Mind
01:41:10.856 : en:16. End Titles ("Original Sin")

x264 [info]: frame I:1175 Avg QP:16.57 size:103895
x264 [info]: frame P:32727 Avg QP:19.24 size: 46207
x264 [info]: frame B:120627 Avg QP:21.60 size: 24395
x264 [info]: consecutive B-frames: 1.7% 2.1% 6.4% 25.6% 23.7% 18.7% 9.7% 6.5% 3.5% 0.9% 0.6% 0.3% 0.4%
x264 [info]: mb I I16..4: 10.7% 67.2% 22.2%
x264 [info]: mb P I16..4: 0.7% 23.1% 3.8% P16..4: 18.1% 24.7% 16.7% 4.9% 0.9% skip: 7.1%
x264 [info]: mb B I16..4: 0.1% 6.7% 0.7% B16..8: 28.5% 25.1% 6.6% direct:11.9% skip:20.5% L0:35.3% L1:35.3% BI:29.4%
x264 [info]: 8x8 transform intra:85.5% inter:40.4%
x264 [info]: coded y,uvDC,uvAC intra: 96.5% 64.2% 25.1% inter: 48.3% 20.5% 4.0%
x264 [info]: i16 v,h,dc,p: 23% 9% 15% 52%
x264 [info]: i8 v,h,dc,ddl,ddr,vr,hd,vl,hu: 14% 8% 16% 9% 12% 11% 9% 11% 12%
x264 [info]: i4 v,h,dc,ddl,ddr,vr,hd,vl,hu: 18% 7% 6% 9% 14% 13% 11% 11% 11%
x264 [info]: i8c dc,h,v,p: 26% 34% 23% 16%
x264 [info]: Weighted P-Frames: Y:6.3% UV:3.9%
x264 [info]: ref P L0: 52.5% 11.1% 15.4% 6.8% 4.7% 3.5% 2.7% 1.7% 1.5% 0.1% 0.0%
x264 [info]: ref B L0: 83.2% 8.7% 3.6% 1.6% 1.1% 0.8% 0.7% 0.3%
x264 [info]: ref B L1: 91.3% 8.7%
x264 [info]: kb/s:5681.10



Скачать Тень.The.Shadow.(Рассел.Малкэй).[1994.фэнтези.боевик.триллер.криминал.детектив.приключения.комикс.BDRip-AVC].[MVO]+[Оригинал]+[Sub]x2.torrent без регистрации
Золото ЗОЛОТАЯ РАЗДАЧА! СКАЧАННОЕ НЕ ЗАСЧИТЫВАЕТСЯ! Золото
Дата: Зарегистрирован   [ Тип: внутренний ] Как тут cкачать?
MAGNET ссылка
MAGNET ссылка


Скачать .torrent

25 KB

Статус: проверено DHT
Скачан: торрент - 100 раз, раздача полностью - 19 раз
Размер: 4,89 GB
Оценка:  - (Голосов: 0)
Поблагодарили: 1
Поделиться ссылкой на эту раздачу с друзьями:
В контактеFacebookОдноклассникиTwitterLivejournalМой МирLiveinternet
 

 
Показать сообщения:    


Вы не можете начинать темы
Вы не можете отвечать на сообщения
Вы не можете редактировать свои сообщения
Вы не можете удалять свои сообщения
Вы не можете голосовать в опросах
Вы не можете прикреплять файлы к сообщениям
Вы можете скачивать файлы