Loading...
Error

Скачать Щепка / Sliver (Филлип Нойс) [1993, триллер, мелодрама, BDRip-AVC] [MVO]+[Sub]x2 торрент без регистрации

 
Статистика раздачи
Размер:  1,45 GB   |    Скачан:  133 раза
Сидов:  1  [  0 KB/s  ]  
 
Автор Сообщение

Marsianka

[] 

Щепка / Sliver (1993) BDRip-AVC

Информация о фильме
Название: Щепка
Оригинальное название: Sliver
Год выхода: 1993
Жанр: триллер, мелодрама
Режиссер: Филлип Нойс

В ролях: Шэрон Стоун, Уильям Болдуин, Том Беренджер, Полли Уокер, Коллин Кэмп, Аманда Формен, Мартин Ландау, Си Си Эйч Паундер, Нина Фош, Кин Кертис, Николас Прайор, Энн Бетанкорт, Тони Пек, Франц Тернер, Раду Гэйвор, Эллисон Маки, Хосе Рей, Джим Бивер, Гилберт Розалес...

О фильме: Сотрудница издательства Кей Норрис переезжает на новую квартиру в модном небоскребе, прозванном «щепка». Там она становится объектом соперничества двух мужчин владельца дома и одного из жильцов, автора популярных детективов.

Серия таинственных убийств, происходящих в доме, наводит ее на мысль, что вокруг нее самой сжимается опасное кольцо. Кей понимает, что неизвестный убийца один из ее поклонников



Страна: США
Продолжительность: 01:46:31
Перевод: Профессиональный (многоголосый закадровый) НТВ+

Файл
Кодек: x.264
Качество: BDRip-AVC
Видео: 1024x496 (2,065), 23,976 fps, 1759 kbps, 0.144 bit/pixel
Звук: 48 kHz, AC3 Dolby Digital, 2 ch, ~192.00 kbps
Субтитры: Русские, Английские (отключаемые)

&
Общее
Уникальный идентификатор : 205756393349903042210403872235506334078 (0x9ACB3D6B6882822688CB5CADD147797E)
Полное имя : D:Sliver.1993.BDRip-AVC.mkv
Формат : Matroska
Версия формата : Version 4 / Version 2
Размер файла : 1,45 Гбайт
Продолжительность : 1 ч. 47 м.
Общий поток : 1934 Кбит/сек
Название фильма : Щепка / Sliver (1993) BDRip-AVC rip by Rulya74
Дата кодирования : UTC 2014-03-17 15:36:14
Программа кодирования : mkvmerge v6.5.0 ('Isn't she lovely') built on Oct 20 2013 12:50:05
Библиотека кодирования : libebml v1.3.0 + libmatroska v1.4.1

Видео
Идентификатор : 1
Формат : AVC
Формат/Информация : Advanced Video Codec
Профиль формата : High@L4.1
Параметр CABAC формата : Да
Параметр ReFrames формата : 11 кадров
Идентификатор кодека : V_MPEG4/ISO/AVC
Продолжительность : 1 ч. 47 м.
Битрейт : 1759 Кбит/сек
Ширина : 1024 пикселя
Высота : 496 пикселей
Соотношение сторон : 2,065
Режим частоты кадров : Постоянный
Частота кадров : 23,976 кадра/сек
Цветовое пространство : YUV
Субдискретизация насыщенности : 4:2:0
Битовая глубина : 8 бит
Тип развёртки : Прогрессивная
Бит/(Пиксели*Кадры) : 0.144
Размер потока : 1,28 Гбайт (88%)
Библиотека кодирования : x264 core 138 r2358 9e941d1
Настройки программы : cabac=1 / ref=11 / deblock=1:-3:-2 / analyse=0x3:0x113 / me=umh / subme=11 / psy=1 / psy_rd=1.00:0.00 / mixed_ref=1 / me_range=48 / chroma_me=1 / trellis=2 / 8x8dct=1 / cqm=0 / deadzone=21,11 / fast_pskip=0 / chroma_qp_offset=-2 / threads=8 / lookahead_threads=1 / sliced_threads=0 / nr=0 / decimate=1 / interlaced=0 / bluray_compat=0 / constrained_intra=0 / bframes=5 / b_pyramid=2 / b_adapt=2 / b_bias=0 / direct=3 / weightb=1 / open_gop=0 / weightp=2 / keyint=240 / keyint_min=23 / scenecut=40 / intra_refresh=0 / rc_lookahead=40 / rc=2pass / mbtree=1 / bitrate=1759 / ratetol=1.0 / qcomp=0.60 / qpmin=0 / qpmax=69 / qpstep=4 / cplxblur=20.0 / qblur=0.5 / vbv_maxrate=62500 / vbv_bufsize=78125 / nal_hrd=none / ip_ratio=1.40 / aq=2:1.00
Default : Да
Forced : Нет

Аудио
Идентификатор : 2
Формат : AC-3
Формат/Информация : Audio Coding 3
Расширение режима : CM (complete main)
Параметр Endianness формата : Big
Идентификатор кодека : A_AC3
Продолжительность : 1 ч. 47 м.
Вид битрейта : Постоянный
Битрейт : 192 Кбит/сек
Каналы : 2 канала
Расположение каналов : Front: L R
Частота : 48,0 КГц
Битовая глубина : 16 бит
Метод сжатия : С потерями
Размер потока : 148 Мбайт (10%)
Заголовок : Профессиональный (многоголосый закадровый) НТВ+
Язык : Russian
Default : Да
Forced : Нет

Текст #1
Идентификатор : 3
Формат : UTF-8
Идентификатор кодека : S_TEXT/UTF8
Идентификатор кодека/Информация : UTF-8 Plain Text
Язык : Russian
Default : Да
Forced : Нет

Текст #2
Идентификатор : 4
Формат : UTF-8
Идентификатор кодека : S_TEXT/UTF8
Идентификатор кодека/Информация : UTF-8 Plain Text
Язык : English
Default : Нет
Forced : Нет

Меню
00:00:00.000 : :Chapter 01
00:04:12.877 : :Chapter 02
00:09:54.802 : :Chapter 03
00:19:07.729 : :Chapter 04
00:30:37.544 : :Chapter 05
00:38:24.135 : :Chapter 06
00:50:17.472 : :Chapter 07
00:57:37.954 : :Chapter 08
01:08:27.728 : :Chapter 09
01:12:09.241 : :Chapter 10
01:14:17.286 : :Chapter 11
01:26:37.108 : :Chapter 12
01:32:50.565 : :Chapter 13
01:46:29.383 : :Chapter 14



Скачать Щепка.Sliver.(Филлип.Нойс).[1993.триллер.мелодрама.BDRip-AVC].[MVO]+[Sub]x2.torrent без регистрации
Золото ЗОЛОТАЯ РАЗДАЧА! СКАЧАННОЕ НЕ ЗАСЧИТЫВАЕТСЯ! Золото
Дата: Зарегистрирован   [ Тип: внутренний ] Как тут cкачать?
MAGNET ссылка
MAGNET ссылка


Скачать .torrent

15 KB

Статус: проверено DHT
Скачан: торрент - 133 раз, раздача полностью - 107 раз
Размер: 1,45 GB
Оценка:  5 (Голосов: 1)
Поблагодарили: 3
Поделиться ссылкой на эту раздачу с друзьями:
В контактеFacebookОдноклассникиTwitterLivejournalМой МирLiveinternet
 

 
Показать сообщения:    


Вы не можете начинать темы
Вы не можете отвечать на сообщения
Вы не можете редактировать свои сообщения
Вы не можете удалять свои сообщения
Вы не можете голосовать в опросах
Вы не можете прикреплять файлы к сообщениям
Вы можете скачивать файлы