Loading...
Error

Скачать Вестсайдская история / West Side Story (Джером Роббинс, Роберт Уайз) [1961, мюзикл, драма, криминал, HDRip] [DVO] (НТВ+) + Original Eng торрент без регистрации

 
Статистика раздачи
Размер:  2,93 GB   |    Скачан:  88 раз
Сидов:  1  [  0 KB/s  ]  
 
Автор Сообщение

leon030982

[] 

Вестсайдская история / West Side Story



Год выпуска: 1961
Страна: США
Студия: Mirisch Corporation, The, Seven Arts Productions, Beta Productions
Жанр: мюзикл, драма, криминал
Продолжительность: 02:33:43
Перевод: Профессиональный (двухголосый, закадровый) [НТВ+]
Cубтитры: нет
Оригинальная аудиодорожка: английский

Режиссер: Джером Роббинс / Jerome Robbins, Роберт Уайз / Robert Wise

В ролях: Натали Вуд, Ричард Беймер, Расс Тэмблин, Рита Морено, Джордж Чакирис, Саймон Оукленд, Нед Глэсс, Уильям Брэмли, Такер Смит, Тони Морденте и др.

Описание: Сюжет построен на бессмертной истории Ромео и Джульетты, развернутой на новый лад. На улицах Манхэттена ведут беспощадную войну за жизненное пространство две уличных банды, Джеты и Акулы. Тони — член банды Джетов и лучший друг главаря Риффа.
Смуглянка Мария — сестра предводителя пуэрториканцев Акул. Тони и Мария влюбляются друг в друга вопреки ненависти друзей и родственников, и их любовь заканчивается трагически…




Качество видео: HDRip
Формат видео: AVI
Видео кодек: Xvid
Аудио кодек: AC3
Видео: Xvid 720x320 (2,25:1) 23,976 fps Bit rate 2071Kbps b/p 0.375
Аудио 1: AC3 48.0 KHz 2ch. 192kbps [DVO]
Аудио 2: AC3 48.0 KHz 6ch. 448kbps [eng]
Запись звука с канала MGM HD и синхронизация vedigo.
Общее
Полное имя : E:\West.Side.Story.HDRip.avi
Формат : AVI
Формат/Информация : Audio Video Interleave
Профиль формата : OpenDML
Размер файла : 2,93 Гбайт
Продолжительность : 2 ч. 33 м.
Общий поток : 2726 Кбит/сек
Программа кодирования : VirtualDubMod 1.5.10.2 (build 2540/release)
Библиотека кодирования : VirtualDubMod build 2540/release
Видео
Идентификатор : 0
Формат : MPEG-4 Visual
Профиль формата : Advanced Simple@L5
Параметр BVOP формата : 1
Параметр QPel формата : Нет
Параметр GMC формата : Без точки перехода
Параметр матрицы формата : Default (MPEG)
Идентификатор кодека : XVID
Идентификатор кодека/Подсказка : XviD
Продолжительность : 2 ч. 33 м.
Битрейт : 2071 Кбит/сек
Ширина : 720 пикселей
Высота : 320 пикселей
Соотношение сторон : 2,25:1
Частота кадров : 23,976 кадра/сек
Цветовое пространство : YUV
Субдискретизация насыщенности : 4:2:0
Битовая глубина : 8 бит
Тип развёртки : Прогрессивная
Метод сжатия : С потерями
Бит/(Пиксели*Кадры) : 0.375
Размер потока : 2,22 Гбайт (76%)
Библиотека кодирования : XviD 1.2.1 (UTC 2008-12-04)
Аудио #1
Идентификатор : 1
Формат : AC-3
Формат/Информация : Audio Coding 3
Расширение режима : CM (complete main)
Параметр Endianness формата : Big
Идентификатор кодека : 2000
Продолжительность : 2 ч. 33 м.
Вид битрейта : Постоянный
Битрейт : 192 Кбит/сек
Каналы : 2 канала
Расположение каналов : Front: L R
Частота : 48,0 КГц
Битовая глубина : 16 бит
Метод сжатия : С потерями
Размер потока : 211 Мбайт (7%)
Выравнивание : Разделение по промежуткам
Продолжительность промежутка : 42 мс. (1,00 видеокадр)
Время предзагрузки промежутка : 500 мс.
Аудио #2
Идентификатор : 2
Формат : AC-3
Формат/Информация : Audio Coding 3
Расширение режима : CM (complete main)
Параметр Endianness формата : Big
Идентификатор кодека : 2000
Продолжительность : 2 ч. 33 м.
Вид битрейта : Постоянный
Битрейт : 448 Кбит/сек
Каналы : 6 каналов
Расположение каналов : Front: L C R, Side: L R, LFE
Частота : 48,0 КГц
Битовая глубина : 16 бит
Метод сжатия : С потерями
Размер потока : 493 Мбайт (16%)
Выравнивание : Разделение по промежуткам
Продолжительность промежутка : 42 мс. (1,00 видеокадр)
Время предзагрузки промежутка : 500 мс.



Скачать Вестсайдская.история.West.Side.Story.(Джером.Роббинс.Роберт.Уайз).[1961.мюзикл.драма.криминал.HDRip].[DVO].(НТВ+).+.Original.Eng.torrent без регистрации
Золото ЗОЛОТАЯ РАЗДАЧА! СКАЧАННОЕ НЕ ЗАСЧИТЫВАЕТСЯ! Золото
Дата: Зарегистрирован   [ Тип: внутренний ] Как тут cкачать?
MAGNET ссылка
MAGNET ссылка


Скачать .torrent

15 KB

Статус: проверено DHT
Скачан: торрент - 88 раз, раздача полностью - 0 раз
Размер: 2,93 GB
Оценка:  5 (Голосов: 1)
Поблагодарили: 1
Поделиться ссылкой на эту раздачу с друзьями:
В контактеFacebookОдноклассникиTwitterLivejournalМой МирLiveinternet
 

 
Показать сообщения:    


Вы не можете начинать темы
Вы не можете отвечать на сообщения
Вы не можете редактировать свои сообщения
Вы не можете удалять свои сообщения
Вы не можете голосовать в опросах
Вы не можете прикреплять файлы к сообщениям
Вы можете скачивать файлы