Loading...
Error

Скачать Сила веры / Leap of Faith (Ричард Пирс) [1992, Комедия, драма, WEB-DLRip-AVC] [MVO] + 2x[AVO] (А. Михалев, Л. Володарский) торрент без регистрации

 
Статистика раздачи
Размер:  2,76 GB   |    Скачан:  89 раз
Сидов:  1  [  0 KB/s  ]  
 
Автор Сообщение

leon030982

[] 

Сила веры / Leap of Faith

Год выхода: 1992
Жанр: Комедия, драма
Страна: США
Студия: Paramount Pictures
Продолжительность: 01:47:59
Перевод #1: Профессиональный (многоголосый)
Перевод #2: Авторский одноголосый (А. Михалев)
Перевод #3: Авторский (одноголосый) (Л. Володарский)
Субтитры: Английские

Режиссер: Ричард Пирс

В ролях: Стив Мартин, Дебра Уингер, Лолита Давидович, Лиам Нисон, Лукас Хаас, Мит Лоуф, Филип Сеймур Хоффман, М. К. Гейни, Ла Чэнз, Делорес Холл

О фильме:
Бывший преступник Джонас Найтингейл стал бродячим евангелистом, чьи проповеди можно скорее назвать религиозно-цирковыми представлениями. Случилось так, что Джонас «застрял» в небольшом провинциальном городишке, где половина жителей безработные, выброшенные на улицу сталелитейной компанией. Проходимец вытрясает из горожан их последние деньги, не испытывая при этом ни малейших угрызений совести, но на одном из «шоу» происходит истинное чудо, заставляющее его всерьез поверить в бога



Файл
Кодек: MPEG-4 AVC
Качество: WEB-DLRip-AVC
Видео: 2499 Кбит/с, 1024x576
Аудио#1: Russian: 48 kHz, AC3, 3/2 (L,C,R,l,r) + LFE ch, ~384.00 kbps avg - Профессиональный многоголосый (R5)
Аудио#2: Russian: 48 kHz, AC3, 2 (L,R) ch, ~192.00 kbps avg - Авторский одноголосый (А. Михалев)
Аудио#3: Russian: 48 kHz, AC3, 2 (L,R) ch, ~192.00 kbps avg - Авторский одноголосый (Л. Володарский)
Аудио#4: English: 48 kHz, AC3, 3/2 (L,C,R,l,r) + LFE ch, ~384.00 kbps avg - Оригинал
Рип от StarbirS
За исходник спасибо ochkarik1

Субтитры: английские

x264 [info]: frame I:1113 Avg QP:16.39 size: 77956
x264 [info]: frame P:41137 Avg QP:19.63 size: 26373
x264 [info]: frame B:113097 Avg QP:22.77 size: 7540
x264 [info]: consecutive B-frames: 1.5% 6.8% 4.2% 74.6% 4.7% 6.4% 1.0% 0.4% 0.1% 0.2%
Формат : Matroska
Версия формата : Version 4 / Version 2
Размер файла : 2,76 Гбайт
Продолжительность : 1 ч. 47 м.
Общий поток : 3654 Кбит/сек
Название фильма : Leap of Faith.1992.WEB-DLRip.(AVC)
Дата кодирования : UTC 2014-03-18 07:17:40
Программа кодирования : mkvmerge v6.8.0 ('Theme for Great Cities') 64bit built on Mar 2 2014 21:34:26
Библиотека кодирования : libebml v1.3.0 + libmatroska v1.4.1

Видео
Идентификатор : 1
Формат : AVC
Формат/Информация : Advanced Video Codec
Профиль формата : High@L4.1
Параметр CABAC формата : Да
Параметр ReFrames формата : 11 кадров
Идентификатор кодека : V_MPEG4/ISO/AVC
Продолжительность : 1 ч. 47 м.
Битрейт : 2499 Кбит/сек
Ширина : 1024 пикселя
Высота : 576 пикселей
Соотношение сторон : 16:9
Режим частоты кадров : Постоянный
Частота кадров : 23,976 кадра/сек
Цветовое пространство : YUV
Субдискретизация насыщенности : 4:2:0
Битовая глубина : 8 бит
Тип развёртки : Прогрессивная
Бит/(Пиксели*Кадры) : 0.177
Размер потока : 1,83 Гбайт (66%)
Заголовок : Leap of Faith.1992.WEB-DLRip.(AVC).by.StarbirS
Библиотека кодирования : x264 core 138 r2358 9e941d1
Настройки программы : cabac=1 / ref=11 / deblock=1:-3:-3 / analyse=0x3:0x133 / me=umh / subme=10 / psy=1 / psy_rd=1.00:0.15 / mixed_ref=1 / me_range=32 / chroma_me=1 / trellis=2 / 8x8dct=1 / cqm=0 / deadzone=21,11 / fast_pskip=1 / chroma_qp_offset=-3 / threads=6 / lookahead_threads=1 / sliced_threads=0 / nr=0 / decimate=1 / interlaced=0 / bluray_compat=0 / constrained_intra=0 / bframes=9 / b_pyramid=2 / b_adapt=2 / b_bias=0 / direct=3 / weightb=1 / open_gop=0 / weightp=2 / keyint=230 / keyint_min=22 / scenecut=40 / intra_refresh=0 / rc_lookahead=40 / rc=2pass / mbtree=1 / bitrate=2499 / ratetol=1.0 / qcomp=0.60 / qpmin=0 / qpmax=69 / qpstep=4 / cplxblur=20.0 / qblur=0.5 / ip_ratio=1.40 / aq=1:1.00
Default : Да
Forced : Нет

Аудио #1
Идентификатор : 2
Формат : AC-3
Формат/Информация : Audio Coding 3
Расширение режима : CM (complete main)
Параметр Endianness формата : Big
Идентификатор кодека : A_AC3
Продолжительность : 1 ч. 47 м.
Вид битрейта : Постоянный
Битрейт : 384 Кбит/сек
Каналы : 6 каналов
Расположение каналов : Front: L C R, Side: L R, LFE
Частота : 48,0 КГц
Битовая глубина : 16 бит
Метод сжатия : С потерями
Размер потока : 297 Мбайт (11%)
Заголовок : Профессиональный многоголосый (R5)
Язык : Russian
Default : Да
Forced : Нет

Аудио #2
Идентификатор : 3
Формат : AC-3
Формат/Информация : Audio Coding 3
Расширение режима : CM (complete main)
Параметр Endianness формата : Big
Идентификатор кодека : A_AC3
Продолжительность : 1 ч. 47 м.
Вид битрейта : Постоянный
Битрейт : 192 Кбит/сек
Каналы : 2 канала
Расположение каналов : Front: L R
Частота : 48,0 КГц
Битовая глубина : 16 бит
Метод сжатия : С потерями
Размер потока : 148 Мбайт (5%)
Заголовок : Авторский одноголосый (А. Михалев)
Язык : Russian
Default : Нет
Forced : Нет

Аудио #3
Идентификатор : 4
Формат : AC-3
Формат/Информация : Audio Coding 3
Расширение режима : CM (complete main)
Параметр Endianness формата : Big
Идентификатор кодека : A_AC3
Продолжительность : 1 ч. 47 м.
Вид битрейта : Постоянный
Битрейт : 192 Кбит/сек
Каналы : 2 канала
Расположение каналов : Front: L R
Частота : 48,0 КГц
Битовая глубина : 16 бит
Метод сжатия : С потерями
Размер потока : 148 Мбайт (5%)
Заголовок : Авторский одноголосый (Л. Володарский)
Язык : Russian
Default : Нет
Forced : Нет

Аудио #4
Идентификатор : 5
Формат : AC-3
Формат/Информация : Audio Coding 3
Расширение режима : CM (complete main)
Параметр Endianness формата : Big
Идентификатор кодека : A_AC3
Продолжительность : 1 ч. 47 м.
Вид битрейта : Постоянный
Битрейт : 384 Кбит/сек
Каналы : 6 каналов
Расположение каналов : Front: L C R, Side: L R, LFE
Частота : 48,0 КГц
Битовая глубина : 16 бит
Метод сжатия : С потерями
Размер потока : 297 Мбайт (11%)
Заголовок : Оригинал
Язык : English
Default : Нет
Forced : Нет

Текст
Идентификатор : 6
Формат : UTF-8
Идентификатор кодека : S_TEXT/UTF8
Идентификатор кодека/Информация : UTF-8 Plain Text
Заголовок : Английские
Язык : English
Default : Нет
Forced : Нет

Меню
00:00:00.000 : en:Jonas Nightengale
00:09:47.000 : en:Decaf, Toast And Salvation
00:14:38.000 : en:Community Outreach
00:24:52.000 : en:The Big Revival Show
00:34:14.000 : en:Healing
00:40:49.000 : en:Neighborly Concern
00:46:20.000 : en:Little Brother's Faith
00:51:39.000 : en:Reforming Jane
00:54:53.000 : en:Jonas Exposed
01:04:23.000 : en:A Righteous Man
01:10:55.000 : en:A Miracle?
01:17:24.000 : en:Consorting With The Enemy
01:24:03.000 : en:One More!
01:31:46.000 : en:The Genuine Article
01:36:33.000 : en:Rain



Скачать Сила.веры.Leap.of.Faith.(Ричард.Пирс).[1992.Комедия.драма.WEB-DLRip-AVC].[MVO].+.2x[AVO].(А.Михалев.Л.Володарский).torrent без регистрации
Золото ЗОЛОТАЯ РАЗДАЧА! СКАЧАННОЕ НЕ ЗАСЧИТЫВАЕТСЯ! Золото
Дата: Зарегистрирован   [ Тип: внутренний ] Как тут cкачать?
MAGNET ссылка
MAGNET ссылка


Скачать .torrent

14 KB

Статус: проверено DHT
Скачан: торрент - 89 раз, раздача полностью - 12 раз
Размер: 2,76 GB
Оценка:  5 (Голосов: 1)
Поблагодарили: 1
Поделиться ссылкой на эту раздачу с друзьями:
В контактеFacebookОдноклассникиTwitterLivejournalМой МирLiveinternet
 

 
Показать сообщения:    


Вы не можете начинать темы
Вы не можете отвечать на сообщения
Вы не можете редактировать свои сообщения
Вы не можете удалять свои сообщения
Вы не можете голосовать в опросах
Вы не можете прикреплять файлы к сообщениям
Вы можете скачивать файлы