Loading...
Error

Скачать Сила веры / Leap of Faith (Ричард Пирс) [1992, комедия, WEB-DLRip] [DVO] торрент без регистрации

 
Статистика раздачи
Размер:  1,46 GB   |    Скачан:  83 раза
Сидов:  1  [  0 KB/s  ]  
 
Автор Сообщение

leon030982

[] 

Информация о фильме
Название: Сила веры
Оригинальное название: Leap of Faith
Год выхода: 1992
Жанр: комедия
Режиссер: Ричард Пирс / Richard Pearce
В ролях: Стив Мартин /Steve Martin/, Дебра Уингер /Debra Winger/, Лолита Давидович /Lolita Davidovich/, Лукас Хаас /Lukas Haas/, Мит Лоаф /Meat Loaf/, Филип Сеймор Хоффман /Philip Seymour Hoffman/, М. С. Гэйни /M. C. Gainey/, Ла Чанзе /La Chanze/, Делорес Холл /Delores Hall/, Джон Тоулз-Бей /John Toles-Bey/, Альбертина Уокер /Albertina Walker/, Лиам Нисон /Liam Neeson/

О фильме:
Стив Мартин в роли религиозного проповедника, колесящего с труппой евангелистов по стране и дающего представления везде, где удастся. Ну прямо, как цирк-шапито. Но в цирке-шапито люди платят за представление, никак не связанное с вопросами веры. Если фокусник показывает фокусы, люди знают, что это "ловкость рук и никакого мошенничества". В данном случае, вместо карт и ловкости рук используются компьютерные данные о жителях городка, намеченного к обработке, что совсем не лишнее для проповедника, проникающего в души людей, чтобы затронуть их самые тонкие струнки.

Страна: США
Продолжительность: 01:47:59
Перевод: Профессиональный (двухголосый, закадровый)

Файл
Кодек: XviD
Качество: WEB-DLRip
Видео: 720x400, 23,976 fps, 1735 kbps
Звук: AC3, 2 ch, 192 kbps
Общее
Полное имя : Leap of Faith.1992.WEB-DLRip.avi
Формат : AVI
Формат/Информация : Audio Video Interleave
Размер файла : 1,46 Гбайт
Продолжительность : 1 ч. 47 м.
Общий поток : 1937 Кбит/сек
Программа кодирования : VirtualDubMod 1.5.10.3 | www.virtualdub-fr.org || (build 2550/release)
Библиотека кодирования : VirtualDubMod build 2550/release

Видео
Идентификатор : 0
Формат : MPEG-4 Visual
Профиль формата : Advanced Simple@L5
Параметр BVOP формата : 1
Параметр QPel формата : Нет
Параметр GMC формата : Без точки перехода
Параметр матрицы формата : Выборочная
Идентификатор кодека : XVID
Идентификатор кодека/Подсказка : XviD
Продолжительность : 1 ч. 47 м.
Битрейт : 1735 Кбит/сек
Ширина : 720 пикс.
Высота : 400 пикс.
Соотношение сторон : 16:9
Частота кадров : 23,976 кадр/сек
Цветовое пространство : YUV
Подвыборка цветности : 4:2:0
Битовая глубина : 8 бит
Тип развёртки : Прогрессивная
Метод сжатия : С потерями
Бит/(Пиксели*Кадры) : 0.251
Размер потока : 1,31 Гбайт (90%)
Библиотека кодирования : XviD 73

Аудио
Идентификатор : 1
Формат : AC-3
Формат/Информация : Audio Coding 3
Расширение режима : CM (complete main)
Идентификатор кодека : 2000
Продолжительность : 1 ч. 47 м.
Вид битрейта : Постоянный
Битрейт : 192 Кбит/сек
Канал(ы) : 2 канала(ов)
Расположение каналов : Front: L R
Частота : 48,0 КГц
Битовая глубина : 16 бит
Метод сжатия : С потерями
Размер потока : 148 Мбайт (10%)
Выравнивание : Разделение по промежуткам
Продолжительность промежутка : 42 мс. (1,00 видеокадр)
Время предзагрузки промежутка : 500 ms
Релиз от: Leon-masl



Скачать Сила.веры.Leap.of.Faith.(Ричард.Пирс).[1992.комедия.WEB-DLRip].[DVO].torrent без регистрации
Золото ЗОЛОТАЯ РАЗДАЧА! СКАЧАННОЕ НЕ ЗАСЧИТЫВАЕТСЯ! Золото
Дата: Зарегистрирован   [ Тип: внутренний ] Как тут cкачать?
MAGNET ссылка
MAGNET ссылка


Скачать .torrent

15 KB

Статус: проверено DHT
Скачан: торрент - 83 раз, раздача полностью - 0 раз
Размер: 1,46 GB
Оценка:  - (Голосов: 0)
Поблагодарили: 2
Поделиться ссылкой на эту раздачу с друзьями:
В контактеFacebookОдноклассникиTwitterLivejournalМой МирLiveinternet
 

 
Показать сообщения:    


Вы не можете начинать темы
Вы не можете отвечать на сообщения
Вы не можете редактировать свои сообщения
Вы не можете удалять свои сообщения
Вы не можете голосовать в опросах
Вы не можете прикреплять файлы к сообщениям
Вы можете скачивать файлы