Loading...
Error

/ Dark Angel ( . / Craig R. Baxley) [1990, , , , , , , BDRip] [DVO] (+) + [AVO] (.)

 
1,45 GB   |    :  105
1  [  0 KB/s  ]  
 

leon030982

[] 

/ Dark Angel

: 1990
: / Vision International, Vision PDG
: , , , , ,
: 01:31:56
(1): ( )
+
(2): ( )
C:
:
. / Craig R. Baxley
:
(Det. Jack Caine), (Special Agent Arwood Larry Smith), (Diane Pallone), (Bad Alien - Talec), (Good Alien - Azeck), (Captain Malone), (Inspector Switzer), (Victor Manning), (Warren)
:
, .
: , , . ?


: BDRip [Blu-Ray Disc / HDTracker]
: AVI
: XviD
: AC3
: 704x400 (1.76:1), 23.976 fps, XviD build 73 ~1865 kbps avg, 0.28 bit/pixel
#1: 48 kHz, AC3 Dolby Digital, 2/0 (L,R) ch, ~192.00 kbps avg (DVO) +
#2: 48 kHz, AC3 Dolby Digital, 2/0 (L,R) ch, ~192.00 kbps avg (AVO) .

:

General
Complete name : D:\Angel_tmy_1990_BDRip_by_Dalemake.avi
Format : AVI
Format/Info : Audio Video Interleave
File size : 1.45 GiB
Duration : 1h 31mn
Overall bit rate : 2 265 Kbps
Writing application : VirtualDubMod 1.5.10.3 | www.virtualdub-fr.org || (build 2550/release)
Writing library : VirtualDubMod build 2550/release
Video
ID : 0
Format : MPEG-4 Visual
Format profile : Advanced Simple@L5
Format settings, BVOP : 1
Format settings, QPel : No
Format settings, GMC : No warppoints
Format settings, Matrix : Custom
Codec ID : XVID
Codec ID/Hint : XviD
Duration : 1h 31mn
Bit rate : 1 866 Kbps
Width : 704 pixels
Height : 400 pixels
Display aspect ratio : 16:9
Frame rate : 23.976 fps
Color space : YUV
Chroma subsampling : 4:2:0
Bit depth : 8 bits
Scan type : Progressive
Compression mode : Lossy
Bits/(Pixel*Frame) : 0.276
Stream size : 1.20 GiB (82%)
Writing library : XviD 73
Audio #1
ID : 1
Format : AC-3
Format/Info : Audio Coding 3
Mode extension : CM (complete main)
Format settings, Endianness : Big
Codec ID : 2000
Duration : 1h 31mn
Bit rate mode : Constant
Bit rate : 192 Kbps
Channel(s) : 2 channels
Channel positions : Front: L R
Sampling rate : 48.0 KHz
Bit depth : 16 bits
Compression mode : Lossy
Stream size : 126 MiB (8%)
Alignment : Split accross interleaves
Interleave, duration : 42 ms (1.00 video frame)
Interleave, preload duration : 500 ms
Audio #2
ID : 2
Format : AC-3
Format/Info : Audio Coding 3
Mode extension : CM (complete main)
Format settings, Endianness : Big
Codec ID : 2000
Duration : 1h 31mn
Bit rate mode : Constant
Bit rate : 192 Kbps
Channel(s) : 2 channels
Channel positions : Front: L R
Sampling rate : 48.0 KHz
Bit depth : 16 bits
Compression mode : Lossy
Stream size : 126 MiB (8%)
Alignment : Split accross interleaves
Interleave, duration : 42 ms (1.00 video frame)
Interleave, preload duration : 500 ms



..Dark.Angel.(...Craig.R.Baxley).[1990.......BDRip].[DVO].(+).+.[AVO].(.).torrent
  ! ! 
:   [ : ] c?
MAGNET
MAGNET


.torrent

15 KB

: DHT
: - 105 , - 23
: 1,45 GB
5 (: 1)
: 4
:
 FacebookTwitterLivejournal Liveinternet
 

 
: